The Rolling Stones - (I Can't Get No) Satisfaction (2015) [ABKCO/Universal Music Japan, UICY-77523]

Category: Music | Comment: 0

Download Now

The Rolling Stones - (I Can't Get No) Satisfaction (2015) [ABKCO/Universal Music Japan, UICY-77523]

The Rolling Stones - (I Can't Get No) Satisfaction (2015)
EAC | Flac(Image) + Cue + Log & MP3 CBR 320Kbps
ABKCO/Universal Music Japan, UICY-77523 | ~ 55 or 25 Mb | Scans(600dpi, jpg) -> 43 Mb
Classic Rock / Blues Rock

""(I Can't Get No) Satisfaction" is a song by the English rock band The Rolling Stones, released in 1965. It was written by Mick Jagger and Keith Richards and produced by Andrew Loog Oldham. Richards' three-note guitar riff - intended to be replaced by horns - opens and drives the song. The lyrics refer to sexual frustration and commercialism..."


Tracklist:

01. (I Can't Get No) Satisfaction 03:45
02. The Under Assistant West Coast Promotion Man 03:09
03. Spider And The Fly 03:39

Exact Audio Copy V1.0 beta 3 from 29. August 2011

Отчёт EAC об извлечении, выполненном 16. октября 2015, 0:31

The Rolling Stones / (I Can't Get No) Satisfaction (Cardboard Sleeve)

Дисковод: ATAPI iHES108 2 Adapter: 3 ID: 1

Режим чтения : Достоверность
Использование точного потока : Да
Отключение кэша аудио : Да
Использование указателей C2 : Нет

Коррекция смещения при чтении : 6
Способность читать области Lead-in и Lead-out : Нет
Заполнение пропущенных сэмплов тишиной : Да
Удаление блоков с тишиной в начале и конце : Нет
При вычислениях CRC использовались нулевые сэмплы : Да
Интерфейс : Встроенный Win32-интерфейс для Win NT/2000

Выходной формат : Пользовательский кодировщик
Выбранный битрейт : 1024 kBit/s
Качество : Высокий
Добавление ID3-тега : Нет
Утилита сжатия : C:\Program Files\Exact Audio Copy\Flac\flac.exe
Дополнительные параметры : -V -8 -T "Date=%year%" -T "Genre=%genre%" %source%

TOC извлечённого CD Трек | Старт | Длительность | Начальный сектор | Конечный сектор

1 | 0:00.00 | 3:44.44 | 0 | 16843
2 | 3:44.44 | 3:09.09 | 16844 | 31027
3 | 6:53.53 | 3:38.50 | 31028 | 47427

Характеристики диапазона извлечения и сообщения об ошибках

Выбранный диапазон Имя файла D:\EAC-FOLDER\The Rolling Stones - (I Can't Get No) Satisfaction (UICY-77523)\The Rolling Stones - (I Can't Get No) Satisfaction (UICY-77523)\The Rolling Stones - (I Can't Get No) Satisfaction (Cardboard Sleeve).wav Пиковый уровень 99.0 %
Скорость извлечения 2.7 X
Качество диапазона 100.0 %
CRC теста 4D628787
CRC копии 4D628787
Копирование... OK

Ошибок не произошло


AccurateRip: сводка

Трек 1 отсутствует в базе данных
Трек 2 отсутствует в базе данных
Трек 3 отсутствует в базе данных

Ни одного трека нет в базе AccurateRip

Конец отчёта

==== Контрольная сумма отчёта EA9DE69A205720955E01D253493DD4C0002F112097F7257AC6A5854302A884EF ====

foobar2000 1.2.9 / Dynamic Range Meter 1.1.1
log date: 2015-10-17 01:54:41

Analyzed: The Rolling Stones / (I Can't Get No) Satisfaction (Cardboard Sleeve)

DR Peak RMS Duration Track

DR9 -0.09 dB -10.46 dB 3:45 01-(I Can't Get No) Satisfaction
DR8 -0.70 dB -10.07 dB 3:09 02-The Under Assistant West Coast Promotion Man
DR10 -0.19 dB -11.56 dB 3:39 03-Spider And The Fly

Number of tracks: 3
Official DR value: DR9

Samplerate: 44100 Hz
Channels: 2
Bits per sample: 16
Bitrate: 715 kbps
Codec: FLAC

[CUETools log; Date: 17.10.2015 1:45:10; Version: 2.1.4]
[CTDB TOCID: sToBzzweKlLGBq9eavJb.4Dwv50-] disk not present in database.
[AccurateRip ID: 00017444-0004d445-16027803] disk not present in database.

Track Peak [ CRC32 ] [W/O NULL] [ LOG ]
-- 99,0 [4D628787] [144F6566] CRC32
01 99,0 [2F06A8E5] [CE7C8C36]
02 92,2 [681EB845] [193B3409]
03 97,8 [F42D175C] [04F0C559]

The Rolling Stones - (I Can't Get No) Satisfaction (2015) [ABKCO/Universal Music Japan, UICY-77523]

DOWNLOAD LINKS:
Buy Premium To Support Me & Get Resumable Support & Max Speed


Links are Interchangeable - No Password - Single Extraction
Direct Download


Tags: Rolling, Stones, Satisfaction, Universal

The Rolling Stones - (I Can't Get No) Satisfaction (2015) [ABKCO/Universal Music Japan, UICY-77523] Fast Download via Rapidshare Hotfile Fileserve Filesonic Megaupload, The Rolling Stones - (I Can't Get No) Satisfaction (2015) [ABKCO/Universal Music Japan, UICY-77523] Torrents and Emule Download or anything related.
Dear visitor, you went to website as unregistered user.
We encourage you to Register or Login to website under your name.
Information
Members of Guest cannot leave comments.