VA - The Magic Of Disco (2013) [4CD Box Set]

Category: Music | Comment: 0

Download Now

VA - The Magic Of Disco (2013) [4CD Box Set]

VA - The Magic Of Disco (2013)
4CD | EAC Rip | FLAC (Img) + Cue + Log ~ 2,25 Gb | MP3 CBR320 ~ 823 Mb
Scans Included (PNG, 300 dpi) | RAR 5% Recovery
Disco, R&B | Universal Music #534 590-3

"Magic Of Disco - Volume 1 by Universal Music B.V. includes: Earth, Wind & Fire, Cerrone, Blondie, The Village People, Wham!, Commodores, Chaka Khan, Donna Summer, Billy Ocean, The Three Degrees, Gloria Gaynor, Giorgio Moroder, Ottawan, Diana Ross, and many more..."

VA - The Magic Of Disco (2013) [4CD Box Set]

Track List CD1:

01. Chic - Le Freak [03:35]
02. Jocelyn Brown - Somebody else's guy [03:48]
03. Loleatta Holloway - Love sensation [03:49]
04. Tavares - Heaven must be missing an angel [03:32]
05. Earth, Wind & Fire - Boogie wonderland [04:51]
06. Amii Stewart - Knock on wood [04:00]
07. Boys Town Gang - Can't take my eyes off of you [03:30]
08. Delegation - You and I [05:16]
09. Sharon Redd - Can you handle it? [03:53]
10. Cerrone - Love in C minor [03:43]
11. Divine - Shoot your shot [04:07]
12. Anita Ward - Ring my bell [03:34]
13. James 'D-Train' Williams - Music [04:46]
14. Linda Lewis - Class style (I've got it) [04:02]
15. Karen Young - Hot shot [04:22]
16. Patrick Hernandez - Born to be alive [03:10]
17. Viola Wills - If you could read my mind [04:21]
18. Blondie - Heart of glass [04:11]
19. Gene Chandler - Get down [03:22]
20. The Flirts - Passion [03:20]

Exact Audio Copy V1.0 beta 6 from 9. April 2015

EAC extraction logfile from 29. August 2015, 17:58

- / The Magic Of Disco (CD1)

Used drive : hp CDDVDW SH-216DB Adapter: 1 ID: 0

Read mode : Secure
Utilize accurate stream : Yes
Defeat audio cache : Yes
Make use of C2 pointers : No

Read offset correction

: 6
Overread into Lead-In and Lead-Out : No
Fill up missing offset samples with silence : Yes
Delete leading and trailing silent blocks : No
Null samples used in CRC calculations : Yes
Used interface
: Native Win32 interface for Win NT & 2000

Used output format : Internal WAV Routines
Sample format : 44.100 Hz; 16 Bit; Stereo

TOC of the extracted CD Track | Start | Length | Start sector | End sector
--1 | 0:00.00 | 3:34.06 | 0 | 16055 2 | 3:34.06 | 3:47.57 | 16056 | 33137 3 | 7:21.63 | 3:48.06 | 33138 | 50243 4 | 11:09.69 | 3:31.03 | 50244 | 66071 5 | 14:40.72 | 4:50.15 | 66072 | 87836 6 | 19:31.12 | 3:59.42 | 87837 | 105803 7 | 23:30.54 | 3:29.26 | 105804 | 121504 8 | 27:00.05 | 5:15.52 | 121505 | 145181 9 | 32:15.57 | 3:52.21 | 145182 | 162602
10 | 36:08.03 | 3:42.09 | 162603 | 179261
11 | 39:50.12 | 4:06.06 | 179262 | 197717
12 | 43:56.18 | 3:33.20 | 197718 | 213712
13 | 47:29.38 | 4:45.31 | 213713 | 235118
14 | 52:14.69 | 4:01.60 | 235119 | 253253
15 | 56:16.54 | 4:21.37 | 253254 | 272865
16 | 60:38.16 | 3:09.51 | 272866 | 287091
17 | 63:47.67 | 4:20.54 | 287092 | 306645
18 | 68:08.46 | 4:10.31 | 306646 | 325426
19 | 72:19.02 | 3:21.71 | 325427 | 340572
20 | 75:40.73 | 3:19.44 | 340573 | 355541

Range status and errors

Selected range Filename E:\POST\Post Nieuw\The Magic Of Disco Deel 1 (EAC)\CD1\The Magic Of Disco (CD1).wav Peak level 98.3 %
Extraction speed 8.1 X
Range quality 100.0 %
Test CRC F35D5B65
Copy CRC F35D5B65
Copy OK

No errors occurred


AccurateRip summary

Track 1 not present in database
Track 2 not present in database
Track 3 not present in database
Track 4 not present in database
Track 5 not present in database
Track 6 not present in database
Track 7 not present in database
Track 8 not present in database
Track 9 not present in database
Track 10 not present in database
Track 11 not present in database
Track 12 not present in database
Track 13 not present in database
Track 14 not present in database
Track 15 not present in database
Track 16 not present in database
Track 17 not present in database
Track 18 not present in database
Track 19 not present in database
Track 20 not present in database

None of the tracks are present in the AccurateRip database

End of status report

foobar2000 1.2.6 / Dynamic Range Meter 1.1.1
log date: 2015-10-22 13:06:43

Analyzed: Amii Stewart / The Magic Of Disco (CD1) (1) Anita Ward / The Magic Of Disco (CD1) (2) Blondie / The Magic Of Disco (CD1) (3)

DR Peak RMS Duration Track

DR9 -0.42 dB -11.49 dB 4:00 06-Knock on wood
DR10 -0.30 dB -12.64 dB 3:33 12-Ring my bell
DR10 -0.30 dB -10.84 dB 4:10 18-Heart of glass

Number of tracks: 3
Official DR value: DR10

Samplerate: 44100 Hz
Channels: 2
Bits per sample: 16
Bitrate: 982 kbps
Codec: FLAC

Analyzed: Boys Town Gang / The Magic Of Disco (CD1) (1) Cerrone / The Magic Of Disco (CD1) (2)

DR Peak RMS Duration Track

DR10 -0.30 dB -12.25 dB 3:29 07-Can't take my eyes off of you
DR11 -0.30 dB -12.41 dB 3:42 10-Love in C minor

Number of tracks: 2
Official DR value: DR10

Samplerate: 44100 Hz
Channels: 2
Bits per sample: 16
Bitrate: 982 kbps
Codec: FLAC

Analyzed: Chic / The Magic Of Disco (CD1) (1) Delegation / The Magic Of Disco (CD1) (2) Divine / The Magic Of Disco (CD1) (3)

DR Peak RMS Duration Track

DR10 -0.15 dB -11.81 dB 3:34 01-Le Freak
DR11 -0.30 dB -11.94 dB 5:16 08-You and I
DR9 -0.96 dB -11.97 dB 4:06 11-Shoot your shot

Number of tracks: 3
Official DR value: DR10

Samplerate: 44100 Hz
Channels: 2
Bits per sample: 16
Bitrate: 982 kbps
Codec: FLAC

Analyzed: Earth, Wind & Fire / The Magic Of Disco (CD1) (1) Gene Chandler / The Magic Of Disco (CD1) (2)

DR Peak RMS Duration Track

DR9 -0.30 dB -10.43 dB 4:50 05-Boogie wonderland
DR11 -0.30 dB -12.55 dB 3:22 19-Get down

Number of tracks: 2
Official DR value: DR10

Samplerate: 44100 Hz
Channels: 2
Bits per sample: 16
Bitrate: 982 kbps
Codec: FLAC

Statistics for: 13-Music
Number of samples: 12586728
Duration: 4:45
Left Right

Peak Value: -0.30 dB -0.30 dB
Avg RMS: -12.37 dB -12.63 dB
DR channel: 10.89 dB 11.07 dB

Official DR Value: DR11

Samplerate: 44100 Hz
Channels: 2
Bits per sample: 16
Bitrate: 982 kbps
Codec: FLAC

Analyzed: Jocelyn Brown / The Magic Of Disco (CD1) (1) Karen Young / The Magic Of Disco (CD1) (2)

DR Peak RMS Duration Track

DR12 -0.30 dB -14.05 dB 3:48 02-Somebody else's guy
DR9 -2.96 dB -13.43 dB 4:21 15-Hot shot

Number of tracks: 2
Official DR value: DR11

Samplerate: 44100 Hz
Channels: 2
Bits per sample: 16
Bitrate: 982 kbps
Codec: FLAC

Statistics for: 14-Class style (I've got it)
Number of samples: 10663380
Duration: 4:02
Left Right

Peak Value: -0.30 dB -0.30 dB
Avg RMS: -11.67 dB -11.63 dB
DR channel: 9.94 dB 9.89 dB

Official DR Value: DR10

Samplerate: 44100 Hz
Channels: 2
Bits per sample: 16
Bitrate: 982 kbps
Codec: FLAC

Analyzed: Loleatta Holloway / The Magic Of Disco (CD1) (1) Patrick Hernandez / The Magic Of Disco (CD1) (2)

DR Peak RMS Duration Track

DR9 -0.14 dB -10.53 dB 3:48 03-Love sensation
DR9 -1.93 dB -12.25 dB 3:10 16-Born to be alive

Number of tracks: 2
Official DR value: DR9

Samplerate: 44100 Hz
Channels: 2
Bits per sample: 16
Bitrate: 982 kbps
Codec: FLAC

Statistics for: 09-Can you handle it?
Number of samples: 10243548
Duration: 3:52
Left Right

Peak Value: -0.30 dB -0.30 dB
Avg RMS: -11.49 dB -11.79 dB
DR channel: 10.19 dB 10.39 dB

Official DR Value: DR10

Samplerate: 44100 Hz
Channels: 2
Bits per sample: 16
Bitrate: 982 kbps
Codec: FLAC

Analyzed: Tavares / The Magic Of Disco (CD1) (1) The Flirts / The Magic Of Disco (CD1) (2)

DR Peak RMS Duration Track

DR9 -0.38 dB -11.13 dB 3:31 04-Heaven must be missing an angel
DR9 -0.30 dB -10.59 dB 3:20 20-Passion

Number of tracks: 2
Official DR value: DR9

Samplerate: 44100 Hz
Channels: 2
Bits per sample: 16
Bitrate: 982 kbps
Codec: FLAC

Statistics for: 17-If you could read my mind
Number of samples: 11497752
Duration: 4:21
Left Right

Peak Value: -0.30 dB -0.30 dB
Avg RMS: -11.28 dB -11.57 dB
DR channel: 9.49 dB 9.92 dB

Official DR Value: DR10

Samplerate: 44100 Hz
Channels: 2
Bits per sample: 16
Bitrate: 982 kbps
Codec: FLAC

[CUETools log; Date: 22.10.2015 13:07:04; Version: 2.1.5]
[CTDB TOCID: DEFMQ1tk7KX0ZcEB388Q0f0urJk-] found.
Track | CTDB Status
1 | (3/3) Accurately ripped
2 | (3/3) Accurately ripped
3 | (3/3) Accurately ripped
4 | (3/3) Accurately ripped
5 | (3/3) Accurately ripped
6 | (3/3) Accurately ripped
7 | (3/3) Accurately ripped
8 | (3/3) Accurately ripped
9 | (3/3) Accurately ripped
10 | (3/3) Accurately ripped
11 | (3/3) Accurately ripped
12 | (3/3) Accurately ripped
13 | (3/3) Accurately ripped
14 | (3/3) Accurately ripped
15 | (3/3) Accurately ripped
16 | (3/3) Accurately ripped
17 | (3/3) Accurately ripped
18 | (3/3) Accurately ripped
19 | (3/3) Accurately ripped
20 | (3/3) Accurately ripped
[AccurateRip ID: 00394e85-034b6fcb-14128414] disk not present in database.

Track Peak [ CRC32 ] [W/O NULL] [ LOG ]
-- 98,3 [F35D5B65] [5D82C1FC] CRC32
01 98,2 [585F301A] [2AD7C5D7]
02 96,6 [1661505F] [1FB32C6F]
03 98,3 [5533A7B3] [39CD5E8C]
04 95,7 [2338015B] [3E927F13]
05 96,6 [01C4A4DD] [2794DA28]
06 95,2 [73C381B5] [363D7087]
07 96,6 [E82B83B3] [67FE012A]
08 96,6 [D420D644] 6D8F83A
09 96,6 [F37C1CD7] [A8C93E32]
10 96,6 [2DD1F51B] [73506A8C]
11 89,4 [853D0DC0] [55131A79]
12 96,6 [5274DC62] [4967C9BD]
13 96,6 [3BEDC12D] [E338FF73]
14 96,6 [28345056] [548CA260]
15 71,1 [C3536D39] [3CEB6B69]
16 80,0 [8A45B806] [01FA9E36]
17 96,6 [C59A64CC] [7A34C18B]
18 96,6 [C579640D] [945241CA]
19 96,6 [C4E14E23] [251FE23F]
20 96,6 [994DEAD2] [5663990C]

VA - The Magic Of Disco (2013) [4CD Box Set]

Track List CD2:

01. The Jacksons - Blame it on the boogie [03:33]
02. Ritchie Family - The best disco in town [03:16]
03. Rose Royce - Car wash [03:19]
04. Cheryl Lynn - Got to be real [03:50]
05. The Village People - Y.M.C.A. [03:43]
06. Leon Haywood - Don't push it don't force it [03:27]
07. Wham! - Club tropicana [04:29]
08. The Pointer Sisters - Automatic [04:06]
09. Sharon Brown - I specialize in love [05:04]
10. Luther Vandross - Never too much [03:51]
11. Shannon - Let the music play [03:33]
12. Lime - Baby we're gonna love tonite [03:55]
13. Donna Summer - Macarthur park [03:56]
14. Evelyn 'Champagne' King - Shame [03:18]
15. G.Q. - Disco nights [03:59]
16. The brothers Johnson - Stomp! [04:01]
17. Commodores - Brick house [03:35]
18. Oliver Cheatham - Get down saturday night [03:55]
19. Rick James - Super freak [03:20]
20. Gloria Gaynor - I will survive [03:12]

Exact Audio Copy V1.0 beta 6 from 9. April 2015

EAC extraction logfile from 29. August 2015, 18:20

- / The Magic Of Disco Deel 1 (CD2)

Used drive : hp CDDVDW SH-216DB Adapter: 1 ID: 0

Read mode : Secure
Utilize accurate stream : Yes
Defeat audio cache : Yes
Make use of C2 pointers : No

Read offset correction

: 6
Overread into Lead-In and Lead-Out : No
Fill up missing offset samples with silence : Yes
Delete leading and trailing silent blocks : No
Null samples used in CRC calculations : Yes
Used interface
: Native Win32 interface for Win NT & 2000

Used output format : Internal WAV Routines
Sample format : 44.100 Hz; 16 Bit; Stereo

TOC of the extracted CD Track | Start | Length | Start sector | End sector
--1 | 0:00.00 | 3:32.65 | 0 | 15964 2 | 3:32.65 | 3:15.17 | 15965 | 30606 3 | 6:48.07 | 3:18.12 | 30607 | 45468 4 | 10:06.19 | 3:49.35 | 45469 | 62678 5 | 13:55.54 | 3:42.57 | 62679 | 79385 6 | 17:38.36 | 3:26.30 | 79386 | 94865 7 | 21:04.66 | 4:28.51 | 94866 | 115016 8 | 25:33.42 | 4:05.03 | 115017 | 133394 9 | 29:38.45 | 5:03.08 | 133395 | 156127
10 | 34:41.53 | 3:50.04 | 156128 | 173381
11 | 38:31.57 | 3:32.52 | 173382 | 189333
12 | 42:04.34 | 3:54.56 | 189334 | 206939
13 | 45:59.15 | 3:55.24 | 206940 | 224588
14 | 49:54.39 | 3:17.66 | 224589 | 239429
15 | 53:12.30 | 3:58.01 | 239430 | 257280
16 | 57:10.31 | 4:00.40 | 257281 | 275320
17 | 61:10.71 | 3:34.51 | 275321 | 291421
18 | 64:45.47 | 3:54.69 | 291422 | 309040
19 | 68:40.41 | 3:19.07 | 309041 | 323972
20 | 71:59.48 | 3:11.50 | 323973 | 338347

Range status and errors

Selected range Filename E:\POST\Post Nieuw\The Magic Of Disco Deel 1 (EAC)\CD2\The Magic Of Disco Deel 1 (CD2).wav Peak level 98.4 %
Extraction speed 7.7 X
Range quality 100.0 %
Test CRC D6C40580
Copy CRC D6C40580
Copy OK

No errors occurred


AccurateRip summary

Track 1 not present in database
Track 2 not present in database
Track 3 not present in database
Track 4 not present in database
Track 5 not present in database
Track 6 not present in database
Track 7 not present in database
Track 8 not present in database
Track 9 not present in database
Track 10 not present in database
Track 11 not present in database
Track 12 not present in database
Track 13 not present in database
Track 14 not present in database
Track 15 not present in database
Track 16 not present in database
Track 17 not present in database
Track 18 not present in database
Track 19 not present in database
Track 20 not present in database

None of the tracks are present in the AccurateRip database

End of status report

foobar2000 1.2.6 / Dynamic Range Meter 1.1.1
log date: 2015-10-22 13:09:11

Analyzed: Cheryl Lynn / The Magic Of Disco (CD2) (1) Commodores / The Magic Of Disco (CD2) (2)

DR Peak RMS Duration Track

DR9 -0.30 dB -10.99 dB 3:49 04-Got to be real
DR11 -1.40 dB -13.70 dB 3:35 17-Brick house

Number of tracks: 2
Official DR value: DR10

Samplerate: 44100 Hz
Channels: 2
Bits per sample: 16
Bitrate: 960 kbps
Codec: FLAC

Analyzed: Donna Summer / The Magic Of Disco (CD2) (1) Evelyn 'Champagne' King / The Magic Of Disco (CD2) (2) G.Q. / The Magic Of Disco (CD2) (3) Gloria Gaynor / The Magic Of Disco (CD2) (4)

DR Peak RMS Duration Track

DR11 -0.30 dB -13.49 dB 3:55 13-Macarthur park
DR10 -1.95 dB -13.59 dB 3:18 14-Shame
DR9 -0.82 dB -11.14 dB 3:58 15-Disco nights
DR12 -0.30 dB -13.59 dB 3:12 20-I will survive

Number of tracks: 4
Official DR value: DR11

Samplerate: 44100 Hz
Channels: 2
Bits per sample: 16
Bitrate: 960 kbps
Codec: FLAC

Analyzed: Leon Haywood / The Magic Of Disco (CD2) (1) Lime / The Magic Of Disco (CD2) (2)

DR Peak RMS Duration Track

DR11 -0.30 dB -12.64 dB 3:26 06-Don't push it don't force it
DR10 -0.30 dB -11.46 dB 3:55 12-Baby we're gonna love tonite

Number of tracks: 2
Official DR value: DR10

Samplerate: 44100 Hz
Channels: 2
Bits per sample: 16
Bitrate: 960 kbps
Codec: FLAC

Analyzed: Luther Vandross / The Magic Of Disco (CD2) (1) Oliver Cheatham / The Magic Of Disco (CD2) (2) Rick James / The Magic Of Disco (CD2) (3)

DR Peak RMS Duration Track

DR10 -1.61 dB -12.92 dB 3:50 10-Never too much
DR10 -0.32 dB -12.02 dB 3:55 18-Get down saturday night
DR12 -0.30 dB -12.98 dB 3:19 19-Super freak

Number of tracks: 3
Official DR value: DR11

Samplerate: 44100 Hz
Channels: 2
Bits per sample: 16
Bitrate: 960 kbps
Codec: FLAC

Analyzed: Ritchie Family / The Magic Of Disco (CD2) (1) Rose Royce / The Magic Of Disco (CD2) (2) Shannon / The Magic Of Disco (CD2) (3)

DR Peak RMS Duration Track

DR11 -0.38 dB -12.91 dB 3:15 02-The best disco in town
DR11 -0.14 dB -12.45 dB 3:18 03-Car wash
DR9 -0.79 dB -11.12 dB 3:33 11-Let the music play

Number of tracks: 3
Official DR value: DR10

Samplerate: 44100 Hz
Channels: 2
Bits per sample: 16
Bitrate: 960 kbps
Codec: FLAC

Analyzed: Sharon Brown / The Magic Of Disco (CD2) (1) The brothers Johnson / The Magic Of Disco (CD2) (2)

DR Peak RMS Duration Track

DR10 -0.30 dB -11.23 dB 5:03 09-I specialize in love
DR10 -0.30 dB -12.00 dB 4:01 16-Stomp!

Number of tracks: 2
Official DR value: DR10

Samplerate: 44100 Hz
Channels: 2
Bits per sample: 16
Bitrate: 960 kbps
Codec: FLAC

Analyzed: The Jacksons / The Magic Of Disco (CD2) (1) The Pointer Sisters / The Magic Of Disco (CD2) (2)

DR Peak RMS Duration Track

DR10 -0.30 dB -11.13 dB 3:33 01-Blame it on the boogie
DR9 -0.30 dB -10.42 dB 4:05 08-Automatic

Number of tracks: 2
Official DR value: DR9

Samplerate: 44100 Hz
Channels: 2
Bits per sample: 16
Bitrate: 960 kbps
Codec: FLAC

Analyzed: The Village People / The Magic Of Disco (CD2) (1) Wham! / The Magic Of Disco (CD2) (2)

DR Peak RMS Duration Track

DR11 -0.30 dB -12.30 dB 3:43 05-Y.M.C.A.
DR9 -0.30 dB -10.78 dB 4:29 07-Club tropicana

Number of tracks: 2
Official DR value: DR10

Samplerate: 44100 Hz
Channels: 2
Bits per sample: 16
Bitrate: 960 kbps
Codec: FLAC

[CUETools log; Date: 22.10.2015 13:09:33; Version: 2.1.5]
[CTDB TOCID: XZ.5D3J4O58raKij11Ji76cWNlw-] found.
Track | CTDB Status
1 | (4/4) Accurately ripped
2 | (4/4) Accurately ripped
3 | (4/4) Accurately ripped
4 | (4/4) Accurately ripped
5 | (4/4) Accurately ripped
6 | (4/4) Accurately ripped
7 | (4/4) Accurately ripped
8 | (4/4) Accurately ripped
9 | (4/4) Accurately ripped
10 | (4/4) Accurately ripped
11 | (4/4) Accurately ripped
12 | (4/4) Accurately ripped
13 | (4/4) Accurately ripped
14 | (4/4) Accurately ripped
15 | (4/4) Accurately ripped
16 | (4/4) Accurately ripped
17 | (4/4) Accurately ripped
18 | (4/4) Accurately ripped
19 | (4/4) Accurately ripped
20 | (4/4) Accurately ripped
[AccurateRip ID: 00365c4d-0321c83a-0e119f14] disk not present in database.

Track Peak [ CRC32 ] [W/O NULL] [ LOG ]
-- 98,4 [D6C40580] [210AA90E] CRC32
01 96,6 [3BF23483] [3507FDF4]
02 95,7 [2C3E2649] 3B50E58
03 98,4 [58417159] [0EEBD4AB]
04 96,6 [E1FFED63] [7C9CCEFC]
05 96,6 [7CA18511] [F46E42A4]
06 96,6 [9BAF84A5] [9DF30F10]
07 96,6 [2A453AA6] [A5C7C3C6]
08 96,6 [EF5C1C67] [31EB985E]
09 96,6 [8E2FA25B] [17395C53]
10 83,1 [974C4679] [A6C8A522]
11 91,2 [6E9B717A] [40B53C8C]
12 96,5 [20F46D84] [089F92DD]
13 96,6 [E933FC70] [CE60DCBB]
14 79,8 [42FC1079] [9C7DBF77]
15 90,9 [950A385C] [A6FDA68C]
16 96,6 [80AF67AF] [9E0294A6]
17 85,1 [A248FFD8] [07463399]
18 96,3 [0AD64B34] [36D53C82]
19 96,6 5537152 [CAD2F954]
20 96,6 [430D8495] [45B0C026]

VA - The Magic Of Disco (2013) [4CD Box Set]

Track List CD3:

01. Kool & The Gang - Celebration [03:38]
02. Marvin Gaye - Got to give it up [04:09]
03. Alicia Bridges - I love the nightlife [03:05]
04. George Benson - Give me the night [03:43]
05. Salsoul Orchestra feat. Loleatta Holloway - Runaway [04:46]
06. Central Line - Walking into sunshine [03:53]
07. Cameo - Candy [04:28]
08. Lipps Inc. - Funkytown [03:57]
09. Patrick Cowley feat. Sylvester - Do you wanna funk [03:58]
10. The Miracles feat. Billy Griffin - Love machine part 2 [02:56]
11. Yarbrough & Peoples - Don't stop the music [04:05]
12. The Gab Band - Oops up side your head [03:26]
13. Third World - Now that we've found love [03:53]
14. Odyssey - Use it up and wear it out [03:57]
15. The Four Tops - Don't walk away [04:02]
16. Stephanie Mills - Never knew love like this before [04:01]
17. Patrice Rushen - Forget me nots [04:45]
18. E.G Dailey - Say it say it [04:35]
19. The Three Degrees - Givin' up givin' in [03:53]
20. Thelma Houston - Don't leave me this way [03:37]

Exact Audio Copy V1.0 beta 6 from 9. April 2015

EAC extraction logfile from 29. August 2015, 18:51

- / The Magic Of Disco Deel 1 (CD3)

Used drive : hp CDDVDW SH-216DB Adapter: 1 ID: 0

Read mode : Secure
Utilize accurate stream : Yes
Defeat audio cache : Yes
Make use of C2 pointers : No

Read offset correction

: 6
Overread into Lead-In and Lead-Out : No
Fill up missing offset samples with silence : Yes
Delete leading and trailing silent blocks : No
Null samples used in CRC calculations : Yes
Used interface
: Native Win32 interface for Win NT & 2000

Used output format : Internal WAV Routines
Sample format : 44.100 Hz; 16 Bit; Stereo

TOC of the extracted CD Track | Start | Length | Start sector | End sector
--1 | 0:00.00 | 3:37.56 | 0 | 16330 2 | 3:37.56 | 4:08.49 | 16331 | 34979 3 | 7:46.30 | 3:04.57 | 34980 | 48836 4 | 10:51.12 | 3:42.51 | 48837 | 65537 5 | 14:33.63 | 4:45.56 | 65538 | 86968 6 | 19:19.44 | 3:52.35 | 86969 | 104403 7 | 23:12.04 | 4:27.61 | 104404 | 124489 8 | 27:39.65 | 3:56.73 | 124490 | 142262 9 | 31:36.63 | 3:57.51 | 142263 | 160088
10 | 35:34.39 | 2:55.07 | 160089 | 173220
11 | 38:29.46 | 4:04.07 | 173221 | 191527
12 | 42:33.53 | 3:25.60 | 191528 | 206962
13 | 45:59.38 | 3:52.21 | 206963 | 224383
14 | 49:51.59 | 3:56.47 | 224384 | 242130
15 | 53:48.31 | 4:01.22 | 242131 | 260227
16 | 57:49.53 | 4:00.13 | 260228 | 278240
17 | 61:49.66 | 4:44.06 | 278241 | 299546
18 | 66:33.72 | 4:34.07 | 299547 | 320103
19 | 71:08.04 | 3:52.34 | 320104 | 337537
20 | 75:00.38 | 3:36.16 | 337538 | 353753

Range status and errors

Selected range Filename E:\POST\Post Nieuw\The Magic Of Disco Deel 1 (EAC)\CD3\The Magic Of Disco Deel 1 (CD3).wav Peak level 96.6 %
Extraction speed 8.0 X
Range quality 99.9 %
Test CRC 713E756C
Copy CRC 713E756C
Copy OK

No errors occurred


AccurateRip summary

Track 1 not present in database
Track 2 not present in database
Track 3 not present in database
Track 4 not present in database
Track 5 not present in database
Track 6 not present in database
Track 7 not present in database
Track 8 not present in database
Track 9 not present in database
Track 10 not present in database
Track 11 not present in database
Track 12 not present in database
Track 13 not present in database
Track 14 not present in database
Track 15 not present in database
Track 16 not present in database
Track 17 not present in database
Track 18 not present in database
Track 19 not present in database
Track 20 not present in database

None of the tracks are present in the AccurateRip database

End of status report

foobar2000 1.2.6 / Dynamic Range Meter 1.1.1
log date: 2015-10-22 13:10:44

Analyzed: Alicia Bridges / The Magic Of Disco (CD3) (1) Cameo / The Magic Of Disco (CD3) (2)

DR Peak RMS Duration Track

DR10 -0.30 dB -11.50 dB 3:05 03-I love the nightlife
DR10 -0.30 dB -12.47 dB 4:28 07-Candy

Number of tracks: 2
Official DR value: DR10

Samplerate: 44100 Hz
Channels: 2
Bits per sample: 16
Bitrate: 941 kbps
Codec: FLAC

Analyzed: Central Line / The Magic Of Disco (CD3) (1) E.G Dailey / The Magic Of Disco (CD3) (2)

DR Peak RMS Duration Track

DR11 -0.30 dB -12.52 dB 3:52 06-Walking into sunshine
DR10 -0.30 dB -12.07 dB 4:34 18-Say it say it

Number of tracks: 2
Official DR value: DR11

Samplerate: 44100 Hz
Channels: 2
Bits per sample: 16
Bitrate: 941 kbps
Codec: FLAC

Statistics for: 04-Give me the night
Number of samples: 9820188
Duration: 3:43
Left Right

Peak Value: -0.30 dB -0.30 dB
Avg RMS: -12.35 dB -12.68 dB
DR channel: 10.78 dB 11.08 dB

Official DR Value: DR11

Samplerate: 44100 Hz
Channels: 2
Bits per sample: 16
Bitrate: 941 kbps
Codec: FLAC

Analyzed: Kool & The Gang / The Magic Of Disco (CD3) (1) Lipps Inc. / The Magic Of Disco (CD3) (2)

DR Peak RMS Duration Track

DR11 -0.56 dB -13.21 dB 3:38 01-Celebration
DR10 -0.37 dB -10.95 dB 3:57 08-Funkytown

Number of tracks: 2
Official DR value: DR11

Samplerate: 44100 Hz
Channels: 2
Bits per sample: 16
Bitrate: 941 kbps
Codec: FLAC

Analyzed: Marvin Gaye / The Magic Of Disco (CD3) (1) Odyssey / The Magic Of Disco (CD3) (2) Patrice Rushen / The Magic Of Disco (CD3) (3)

DR Peak RMS Duration Track

DR12 -0.30 dB -13.48 dB 4:09 02-Got to give it up
DR11 -0.30 dB -13.20 dB 3:57 14-Use it up and wear it out
DR11 -1.11 dB -13.34 dB 4:44 17-Forget me nots

Number of tracks: 3
Official DR value: DR11

Samplerate: 44100 Hz
Channels: 2
Bits per sample: 16
Bitrate: 941 kbps
Codec: FLAC

Statistics for: 09-Do you wanna funk
Number of samples: 10481688
Duration: 3:58
Left Right

Peak Value: -0.30 dB -0.30 dB
Avg RMS: -10.88 dB -10.99 dB
DR channel: 9.53 dB 9.76 dB

Official DR Value: DR10

Samplerate: 44100 Hz
Channels: 2
Bits per sample: 16
Bitrate: 941 kbps
Codec: FLAC

Analyzed: Salsoul Orchestra feat. Loleatta Holloway / The Magic Of Disco (CD3) (1) Stephanie Mills / The Magic Of Disco (CD3) (2)

DR Peak RMS Duration Track

DR10 -0.30 dB -11.80 dB 4:46 05-Runaway
DR11 -0.30 dB -12.59 dB 4:00 16-Never knew love like this before

Number of tracks: 2
Official DR value: DR10

Samplerate: 44100 Hz
Channels: 2
Bits per sample: 16
Bitrate: 941 kbps
Codec: FLAC

Statistics for: 15-Don't walk away
Number of samples: 10641036
Duration: 4:01
Left Right

Peak Value: -0.30 dB -0.30 dB
Avg RMS: -10.57 dB -10.85 dB
DR channel: 9.17 dB 9.40 dB

Official DR Value: DR9

Samplerate: 44100 Hz
Channels: 2
Bits per sample: 16
Bitrate: 941 kbps
Codec: FLAC

Statistics for: 12-Oops up side your head
Number of samples: 9075780
Duration: 3:26
Left Right

Peak Value: -0.30 dB -0.30 dB
Avg RMS: -12.19 dB -11.80 dB
DR channel: 10.56 dB 10.23 dB

Official DR Value: DR10

Samplerate: 44100 Hz
Channels: 2
Bits per sample: 16
Bitrate: 941 kbps
Codec: FLAC

Analyzed: The Miracles feat. Billy Griffin / The Magic Of Disco (CD3) (1) The Three Degrees / The Magic Of Disco (CD3) (2) Thelma Houston / The Magic Of Disco (CD3) (3)

DR Peak RMS Duration Track

DR10 -0.30 dB -12.58 dB 2:55 10-Love machine part 2
DR8 -0.30 dB -9.63 dB 3:52 19-Givin' up givin' in
DR10 -0.30 dB -11.68 dB 3:36 20-Don't leave me this way

Number of tracks: 3
Official DR value: DR9

Samplerate: 44100 Hz
Channels: 2
Bits per sample: 16
Bitrate: 941 kbps
Codec: FLAC

Statistics for: 13-Now that we've found love
Number of samples: 10243548
Duration: 3:52
Left Right

Peak Value: -0.88 dB -0.88 dB
Avg RMS: -10.95 dB -12.18 dB
DR channel: 8.42 dB 9.24 dB

Official DR Value: DR9

Samplerate: 44100 Hz
Channels: 2
Bits per sample: 16
Bitrate: 941 kbps
Codec: FLAC

Statistics for: 11-Don't stop the music
Number of samples: 10764516
Duration: 4:04
Left Right

Peak Value: -0.30 dB -0.30 dB
Avg RMS: -11.38 dB -10.88 dB
DR channel: 9.65 dB 9.25 dB

Official DR Value: DR9

Samplerate: 44100 Hz
Channels: 2
Bits per sample: 16
Bitrate: 941 kbps
Codec: FLAC

[CUETools log; Date: 22.10.2015 13:11:06; Version: 2.1.5]
[CTDB TOCID: Eoty0O9RPQ5B3.YYfjCK2WSqosI-] found.
Track | CTDB Status
1 | (4/4) Accurately ripped
2 | (4/4) Accurately ripped
3 | (4/4) Accurately ripped
4 | (4/4) Accurately ripped
5 | (4/4) Accurately ripped
6 | (4/4) Accurately ripped
7 | (4/4) Accurately ripped
8 | (4/4) Accurately ripped
9 | (4/4) Accurately ripped
10 | (4/4) Accurately ripped
11 | (4/4) Accurately ripped
12 | (4/4) Accurately ripped
13 | (4/4) Accurately ripped
14 | (4/4) Accurately ripped
15 | (4/4) Accurately ripped
16 | (4/4) Accurately ripped
17 | (4/4) Accurately ripped
18 | (4/4) Accurately ripped
19 | (4/4) Accurately ripped
20 | (4/4) Accurately ripped
[AccurateRip ID: 003805f4-03380e00-25126c14] disk not present in database.

Track Peak [ CRC32 ] [W/O NULL] [ LOG ]
-- 96,6 [713E756C] [0AF206BF] CRC32
01 93,7 [454A7E48] [58B2B92A]
02 96,6 [07F392B9] [5A2B2345]
03 96,6 [D89515AC] [22BC819F]
04 96,6 [7AB7CD88] [07227F9A]
05 96,6 [EE087E63] [87E0A478]
06 96,6 [8A60A9B2] AC32026
07 96,6 [ED687658] [653B77C5]
08 95,8 [679D922B] [FE7A9A28]
09 96,6 [973FA782] [289D263F]
10 96,6 [DEA6F40D] 43AB98C
11 96,6 [790659F9] [C10A6334]
12 96,6 [E621B8DC] [E92815A8]
13 90,3 371A562 [3E7240EE]
14 96,6 [7940A3F3] [EF47E00A]
15 96,6 1A52A59 [EF9E9626]
16 96,6 [A4F8D782] D790E7A
17 87,9 [851EAC93] [74C74F43]
18 96,6 [8C388C11] [A66C123E]
19 96,6 [D5119FED] [346E64E2]
20 96,6 [D71FE24E] [480EC5A7]

VA - The Magic Of Disco (2013) [4CD Box Set]

Track List CD4:

01. Diana Ross - Upside down [04:06]
02. Sister Sledge - Lost in music [04:42]
03. Hot Chocolate - You sexy thing [04:04]
04. The Detroit Spinners - Working my way back to you [03:58]
05. Ottawan - D.i.s.c.o. [03:49]
06. Billy Ocean - European queen [03:32]
07. First Choice - Let no man put us under [03:41]
08. Chaka Khan - I'm every woman [04:06]
09. Peter Brown - They only come out at night [04:14]
10. Gibson Brothers - Que sera mi vida [03:54]
11. The Chi-Lites - Hot on a thing [03:55]
12. The Temptations - Treat her like a lady [04:19]
13. Frankie Valli & The Four Seasons - December 1963 (oh what a night) [03:21]
14. Clubhouse - Do it again/ billie jean [04:04]
15. Giorgio Moroder - Chase [03:36]
16. Ryan Paris - Dolce vita [03:54]
17. Shalamar - I can make you feel good [04:19]
18. The Whispers - And the beat goes on [03:26]
19. Taylor Dane - Tell it to my heart [03:40]
20. Dan Hartman - Relight my fire [03:45]

Exact Audio Copy V1.0 beta 6 from 9. April 2015

EAC extraction logfile from 29. August 2015, 19:53

- / The Magic Of Disco Deel 1 (CD4)

Used drive : hp CDDVDW SH-216DB Adapter: 1 ID: 0

Read mode : Secure
Utilize accurate stream : Yes
Defeat audio cache : Yes
Make use of C2 pointers : No

Read offset correction

: 6
Overread into Lead-In and Lead-Out : No
Fill up missing offset samples with silence : Yes
Delete leading and trailing silent blocks : No
Null samples used in CRC calculations : Yes
Used interface
: Native Win32 interface for Win NT & 2000

Used output format : Internal WAV Routines
Sample format : 44.100 Hz; 16 Bit; Stereo

TOC of the extracted CD Track | Start | Length | Start sector | End sector
--1 | 0:00.00 | 4:05.69 | 0 | 18443 2 | 4:05.69 | 4:41.42 | 18444 | 39560 3 | 8:47.36 | 4:03.22 | 39561 | 57807 4 | 12:50.58 | 3:57.71 | 57808 | 75653 5 | 16:48.54 | 3:48.25 | 75654 | 92778 6 | 20:37.04 | 3:31.33 | 92779 | 108636 7 | 24:08.37 | 3:40.68 | 108637 | 125204 8 | 27:49.30 | 4:05.09 | 125205 | 143588 9 | 31:54.39 | 4:13.16 | 143589 | 162579
10 | 36:07.55 | 3:53.54 | 162580 | 180108
11 | 40:01.34 | 3:54.54 | 180109 | 197712
12 | 43:56.13 | 4:18.28 | 197713 | 217090
13 | 48:14.41 | 3:20.62 | 217091 | 232152
14 | 51:35.28 | 4:03.54 | 232153 | 250431
15 | 55:39.07 | 3:35.47 | 250432 | 266603
16 | 59:14.54 | 3:53.38 | 266604 | 284116
17 | 63:08.17 | 4:18.31 | 284117 | 303497
18 | 67:26.48 | 3:25.58 | 303498 | 318930
19 | 70:52.31 | 3:39.36 | 318931 | 335391
20 | 74:31.67 | 3:44.25 | 335392 | 352216

Range status and errors

Selected range Filename E:\POST\Post Nieuw\The Magic Of Disco Deel 1 (EAC)\CD4\The Magic Of Disco Deel 1 (CD4).wav Peak level 98.3 %
Extraction speed 5.0 X
Range quality 100.0 %
Test CRC DB186081
Copy CRC DB186081
Copy OK

No errors occurred


AccurateRip summary

Track 1 not present in database
Track 2 not present in database
Track 3 not present in database
Track 4 not present in database
Track 5 not present in database
Track 6 not present in database
Track 7 not present in database
Track 8 not present in database
Track 9 not present in database
Track 10 not present in database
Track 11 not present in database
Track 12 not present in database
Track 13 not present in database
Track 14 not present in database
Track 15 not present in database
Track 16 not present in database
Track 17 not present in database
Track 18 not present in database
Track 19 not present in database
Track 20 not present in database

None of the tracks are present in the AccurateRip database

End of status report

foobar2000 1.2.6 / Dynamic Range Meter 1.1.1
log date: 2015-10-22 13:11:45

Analyzed: Billy Ocean / The Magic Of Disco (CD4) (1) Chaka Khan / The Magic Of Disco (CD4) (2) Clubhouse / The Magic Of Disco (CD4) (3) Dan Hartman / The Magic Of Disco (CD4) (4)

DR Peak RMS Duration Track

DR10 -1.01 dB -12.55 dB 3:31 06-European queen
DR11 -0.14 dB -12.34 dB 4:05 08-I'm every woman
DR11 -0.30 dB -12.46 dB 4:04 14-Do it again/ billie jean
DR10 -0.30 dB -11.45 dB 3:44 20-Relight my fire

Number of tracks: 4
Official DR value: DR10

Samplerate: 44100 Hz
Channels: 2
Bits per sample: 16
Bitrate: 955 kbps
Codec: FLAC

Analyzed: Diana Ross / The Magic Of Disco (CD4) (1) First Choice / The Magic Of Disco (CD4) (2) Frankie Valli & The Four Seasons / The Magic Of Disco (CD4) (3)

DR Peak RMS Duration Track

DR12 -0.30 dB -13.77 dB 4:06 01-Upside down
DR10 -0.30 dB -11.85 dB 3:41 07-Let no man put us under
DR10 -0.30 dB -11.72 dB 3:21 13-December 1963 (oh what a night)

Number of tracks: 3
Official DR value: DR11

Samplerate: 44100 Hz
Channels: 2
Bits per sample: 16
Bitrate: 955 kbps
Codec: FLAC

Analyzed: Gibson Brothers / The Magic Of Disco (CD4) (1) Giorgio Moroder / The Magic Of Disco (CD4) (2)

DR Peak RMS Duration Track

DR10 -0.49 dB -12.18 dB 3:54 10-Que sera mi vida
DR10 -0.60 dB -12.63 dB 3:36 15-Chase

Number of tracks: 2
Official DR value: DR10

Samplerate: 44100 Hz
Channels: 2
Bits per sample: 16
Bitrate: 955 kbps
Codec: FLAC

Analyzed: Hot Chocolate / The Magic Of Disco (CD4) (1) Ottawan / The Magic Of Disco (CD4) (2) Peter Brown / The Magic Of Disco (CD4) (3) Ryan Paris / The Magic Of Disco (CD4) (4) Shalamar / The Magic Of Disco (CD4) (5)

DR Peak RMS Duration Track

DR8 -1.61 dB -10.55 dB 4:03 03-You sexy thing
DR9 -0.30 dB -11.13 dB 3:48 05-D.i.s.c.o.
DR12 -0.30 dB -13.60 dB 4:13 09-They only come out at night
DR9 -0.30 dB -10.27 dB 3:54 16-Dolce vita
DR10 -0.30 dB -11.77 dB 4:18 17-I can make you feel good

Number of tracks: 5
Official DR value: DR10

Samplerate: 44100 Hz
Channels: 2
Bits per sample: 16
Bitrate: 955 kbps
Codec: FLAC

Analyzed: Sister Sledge / The Magic Of Disco (CD4) (1) Taylor Dane / The Magic Of Disco (CD4) (2)

DR Peak RMS Duration Track

DR11 -0.30 dB -12.41 dB 4:42 02-Lost in music
DR10 -0.30 dB -10.78 dB 3:39 19-Tell it to my heart

Number of tracks: 2
Official DR value: DR10

Samplerate: 44100 Hz
Channels: 2
Bits per sample: 16
Bitrate: 955 kbps
Codec: FLAC

Statistics for: 11-Hot on a thing
Number of samples: 10351152
Duration: 3:55
Left Right

Peak Value: -0.30 dB -0.30 dB
Avg RMS: -14.18 dB -14.21 dB
DR channel: 12.47 dB 12.55 dB

Official DR Value: DR13

Samplerate: 44100 Hz
Channels: 2
Bits per sample: 16
Bitrate: 955 kbps
Codec: FLAC

Analyzed: The Detroit Spinners / The Magic Of Disco (CD4) (1) The Temptations / The Magic Of Disco (CD4) (2) The Whispers / The Magic Of Disco (CD4) (3)

DR Peak RMS Duration Track

DR9 -1.14 dB -11.78 dB 3:58 04-Working my way back to you
DR9 -2.59 dB -12.74 dB 4:18 12-Treat her like a lady
DR9 -1.16 dB -11.38 dB 3:26 18-And the beat goes on

Number of tracks: 3
Official DR value: DR9

Samplerate: 44100 Hz
Channels: 2
Bits per sample: 16
Bitrate: 955 kbps
Codec: FLAC

[CUETools log; Date: 22.10.2015 13:12:09; Version: 2.1.5]
[CTDB TOCID: auya95uDcAwvYP_CWeKn3nWk96M-] found.
Track | CTDB Status
1 | (4/4) Accurately ripped
2 | (4/4) Accurately ripped
3 | (4/4) Accurately ripped
4 | (4/4) Accurately ripped
5 | (4/4) Accurately ripped
6 | (4/4) Accurately ripped
7 | (4/4) Accurately ripped
8 | (4/4) Accurately ripped
9 | (4/4) Accurately ripped
10 | (4/4) Accurately ripped
11 | (4/4) Accurately ripped
12 | (4/4) Accurately ripped
13 | (4/4) Accurately ripped
14 | (4/4) Accurately ripped
15 | (4/4) Accurately ripped
16 | (4/4) Accurately ripped
17 | (4/4) Accurately ripped
18 | (4/4) Accurately ripped
19 | (4/4) Accurately ripped
20 | (4/4) Accurately ripped
[AccurateRip ID: 00396952-0345d14b-27125814] disk not present in database.

Track Peak [ CRC32 ] [W/O NULL] [ LOG ]
-- 98,3 [DB186081] [5028CD5F] CRC32
01 96,6 [9E8CF2E1] [37EDAECC]
02 96,6 [88BE109A] [1708CEFB]
03 83,1 [F5BAC549] [E4100B0A]
04 87,6 [590EEC0B] [F4B88E89]
05 96,6 [808A6B95] [5792011B]
06 88,9 [DB871335] [D5855986]
07 96,6 [74083117] [33B1B4B5]
08 98,3 [036AFF4B] [86182DB2]
09 96,6 [7085E27D] [78676452]
10 94,5 [CFDA6F36] [9CCD323D]
11 96,6 [284D7EE6] [65351F0A]
12 74,1 [114D7BD7] [3D8ED75F]
13 96,6 [71082370] [09BCF9AA]
14 96,6 93AC710 [41EBCD37]
15 93,2 [D8B8F393] [0696ADA5]
16 96,6 [29A33C6C] [FEFEA761]
17 96,6 [2B944A28] [E640C620]
18 87,4 [FD1EA6A1] [A5DF1405]
19 96,6 [02686C2D] [4E4A2A59]
20 96,6 [3637822F] [2A5E78CE]

VA - The Magic Of Disco (2013) [4CD Box Set]

DOWNLOAD LINKS:
Buy Premium To Support Me & Get Resumable Support & Max Speed

Rapidgator.net:
pm59b.VATMgcDsc13CD1flac.part1.rar.html
pm59b.VATMgcDsc13CD1flac.part2.rar.html
pm59b.VATMgcDsc13CD1flac.part3.rar.html
pm59b.VATMgcDsc13CD1mp3.rar.html
pm59b.VATMgcDsc13CD2flac.part1.rar.html
pm59b.VATMgcDsc13CD2flac.part2.rar.html
pm59b.VATMgcDsc13CD2flac.part3.rar.html
pm59b.VATMgcDsc13CD2mp3.rar.html
pm59b.VATMgcDsc13CD3flac.part1.rar.html
pm59b.VATMgcDsc13CD3flac.part2.rar.html
pm59b.VATMgcDsc13CD3flac.part3.rar.html
pm59b.VATMgcDsc13CD3mp3.rar.html
pm59b.VATMgcDsc13CD4flac.part1.rar.html
pm59b.VATMgcDsc13CD4flac.part2.rar.html
pm59b.VATMgcDsc13CD4flac.part3.rar.html
pm59b.VATMgcDsc13CD4mp3.rar.html

Uploaded.net:
pm59b.VATMgcDsc13CD1flac.part1.rar
pm59b.VATMgcDsc13CD1flac.part2.rar
pm59b.VATMgcDsc13CD1flac.part3.rar
pm59b.VATMgcDsc13CD1mp3.rar
pm59b.VATMgcDsc13CD2flac.part1.rar
pm59b.VATMgcDsc13CD2flac.part2.rar
pm59b.VATMgcDsc13CD2flac.part3.rar
pm59b.VATMgcDsc13CD2mp3.rar
pm59b.VATMgcDsc13CD3flac.part1.rar
pm59b.VATMgcDsc13CD3flac.part2.rar
pm59b.VATMgcDsc13CD3flac.part3.rar
pm59b.VATMgcDsc13CD3mp3.rar
pm59b.VATMgcDsc13CD4flac.part1.rar
pm59b.VATMgcDsc13CD4flac.part2.rar
pm59b.VATMgcDsc13CD4flac.part3.rar
pm59b.VATMgcDsc13CD4mp3.rar

OBoom.com:
pm59b.VATMgcDsc13CD1flac.part1.rar
pm59b.VATMgcDsc13CD1flac.part2.rar
pm59b.VATMgcDsc13CD1flac.part3.rar
pm59b.VATMgcDsc13CD1mp3.rar
pm59b.VATMgcDsc13CD2flac.part1.rar
pm59b.VATMgcDsc13CD2flac.part2.rar
pm59b.VATMgcDsc13CD2flac.part3.rar
pm59b.VATMgcDsc13CD2mp3.rar
pm59b.VATMgcDsc13CD3flac.part1.rar
pm59b.VATMgcDsc13CD3flac.part2.rar
pm59b.VATMgcDsc13CD3flac.part3.rar
pm59b.VATMgcDsc13CD3mp3.rar
pm59b.VATMgcDsc13CD4flac.part1.rar
pm59b.VATMgcDsc13CD4flac.part2.rar
pm59b.VATMgcDsc13CD4flac.part3.rar
pm59b.VATMgcDsc13CD4mp3.rar

Links are Interchangeable - No Password - Single Extraction
Direct Download

VA - The Magic Of Disco (2013) [4CD Box Set] Fast Download via Rapidshare Hotfile Fileserve Filesonic Megaupload, VA - The Magic Of Disco (2013) [4CD Box Set] Torrents and Emule Download or anything related.
Dear visitor, you went to website as unregistered user.
We encourage you to Register or Login to website under your name.
Information
Members of Guest cannot leave comments.