Duke Ellington & His Orchestra - Ellington Uptown (1952) (2004 Legacy Edition)

Category: Music | Comment: 0

Download Now

Duke Ellington & His Orchestra - Ellington Uptown (1952) (2004 Legacy Edition)

Duke Ellington & His Orchestra - Ellington Uptown (1952) (2004 Legacy Edition)
EAC Rip | FLAC with CUE and log | scans | 273 mb
MP3 CBR 320kbps | RAR | 170 mb
Genre: jazz

Ellington Uptown is the 1952 album by Duke Ellington & His Orchestra, originally released in the 10" format. This is taken from the 2004 Legacy Edition, featuring bonus material.
"Principally recorded at Liederkranz Hall and Columbia's 30th St. Studios, New York, New York in 1947 & 1951-52. Originally released on Columbia (4639). This release blends the original 1952 ELLINGTON UPTOWN album with recordings made by a previous Ellington lineup in 1947. After World War Two and the advent of television had effectively put an end to the big band era, large bands like Duke Ellington's survived by performing more cerebral music for non-dancing audiences. Thoughtful, occasionally humorous pieces like "Before My Time" and "Later," both parts of the "Controversial Suite," were the result, but Ellington's outfit was still capable of turning on the musical pyrotechnics, as Louis Bellson's drum vehicle, "Skin Deep," attests. Ellington's perennial "The Mooche," which he performed from his Cotton Club days in Harlem through the end of his career, is another highlight, as is trombonist Juan Tizol's exotic "Perdido." Bellson and Tizol had both been poached from Harry James's orchestra immediately prior to the 1952 recording, and Bellson in particular brings a revitalizing energy to these arrangements"


Duke Ellington & His Orchestra - Ellington Uptown (1952) (2004 Legacy Edition)

1. Skin Deep
2. The Mooche
3. Take The "A" Train
4. A Tone Parallel To Harlem (Harlem Suite)
5. Perdido

THE CONTROVERSIAL SUITE
6. Before My Time
7. Later

THE LIBERIAN SUITE
8. I Like The Sunrise
9. Dane No. 1
10. Dance No. 2
11. Dance No. 3
12. Dance No. 4
13. Dance No. 5


This CD combines all of the various versions of the Ellington Uptown releases over the years:

* The original 10" LP consists of tracks #1-5.
* As Hi-Fi Ellington Uptown, "A Tone Parallel To Harlem" is replaced by the two-part "The Controversial Suite".
* Hi-Fi Ellington Uptown was released yet again with another catalog number, similar to the second version but replacing "Perdido" with "The Liberian Suite", which had been previously available as its own 10" LP

"Skin Deep" produced by Duke and Mercer Ellington
All other tracks produced by George Avakian

2004 Legacy Edition mastered by Mark Wilder


Personnel:
Duke Ellington, Billy Strayhorn (arranger, piano)
Betty Roche, Al Hibbler (vocals)
Johnny Hodges (soprano & alto saxophones, clarinet)
Russell Procope (alto saxophone, clarinet)
Willie Smith, Hilton Jefferson (alto saxophone)
Jimmy Hamilton (tenor saxophone, clarinet)
Paul Gonsalves, Al Sears (tenor saxophone)
Harry Carney (baritone saxophone, bass clarinet)
Ray Nance (trumpet, violin)
Cat Anderson, Harold "Shorty" Baker, Francis Williams, Willie Cook, Clark Terry (trumpet)
Tyree Glenn (trombone, vibraphone)
Quentin Jackson, Britt Woodman, Juan Tizol, Lawrence Brown, Claude Jones (trombone)
Fred Guy (guitar)
Oscar Pettiford, Junior Raglin, Wendell Marshall (bass)
Sonny Greer (drums, tympani)
Louis Bellson (drums)

Duke Ellington & His Orchestra - Ellington Uptown (1952) (2004 Legacy Edition)



EAC extraction logfile from 8. February 2006, 9:02 for CD
Duke Ellington / Ellington Uptown

Used drive : LITE-ON DVDRW SOHW-1633S Adapter: 0 ID: 0
Read mode : Secure with NO C2, accurate stream, disable cache
Read offset correction : 12
Overread into Lead-In and Lead-Out : No

Used output format : Internal WAV Routines 44.100 Hz; 16 Bit; Stereo

Other options :
Fill up missing offset samples with silence : Yes
Delete leading and trailing silent blocks : No
Installed external ASPI interface

Track 1
Filename D:\FLAC\Duke Ellington - Ellington Uptown (1952) [FLAC] (2004 Legacy Edition)\01 - Skin Deep.wav Pre-gap length 0:00:02.00 Peak level 100.0 %
Track quality 100.0 %
Test CRC 2660AD20
Copy CRC 2660AD20
Copy OK

Track 2
Filename D:\FLAC\Duke Ellington - Ellington Uptown (1952) [FLAC] (2004 Legacy Edition)\02 - The Mooche.wav Peak level 89.9 %
Track quality 100.0 %
Test CRC 06DF70B8
Copy CRC 06DF70B8
Copy OK

Track 3
Filename D:\FLAC\Duke Ellington - Ellington Uptown (1952) [FLAC] (2004 Legacy Edition)\03 - Take The 'A' Train.wav Peak level 99.7 %
Track quality 100.0 %
Test CRC E2539CD6
Copy CRC E2539CD6
Copy OK

Track 4
Filename D:\FLAC\Duke Ellington - Ellington Uptown (1952) [FLAC] (2004 Legacy Edition)\04 - A Tone Parallel To Harlem (Harlem Suite).wav Pre-gap length 0:00:01.70 Peak level 100.0 %
Track quality 100.0 %
Test CRC 3A71789E
Copy CRC 3A71789E
Copy OK

Track 5
Filename D:\FLAC\Duke Ellington - Ellington Uptown (1952) [FLAC] (2004 Legacy Edition)\05 - Perdido.wav Pre-gap length 0:00:01.86 Peak level 97.4 %
Track quality 100.0 %
Test CRC ADC5505B
Copy CRC ADC5505B
Copy OK

Track 6
Filename D:\FLAC\Duke Ellington - Ellington Uptown (1952) [FLAC] (2004 Legacy Edition)\06 - Before My Time.wav Pre-gap length 0:00:01.66 Peak level 94.4 %
Track quality 100.0 %
Test CRC E73BFCB3
Copy CRC E73BFCB3
Copy OK

Track 7
Filename D:\FLAC\Duke Ellington - Ellington Uptown (1952) [FLAC] (2004 Legacy Edition)\07 - Later.wav Pre-gap length 0:00:01.46 Peak level 94.4 %
Track quality 100.0 %
Test CRC BA63684E
Copy CRC BA63684E
Copy OK

Track 8
Filename D:\FLAC\Duke Ellington - Ellington Uptown (1952) [FLAC] (2004 Legacy Edition)\08 - I Like The Sunrise.wav Pre-gap length 0:00:01.33 Peak level 83.9 %
Track quality 100.0 %
Test CRC 44E56310
Copy CRC 44E56310
Copy OK

Track 9
Filename D:\FLAC\Duke Ellington - Ellington Uptown (1952) [FLAC] (2004 Legacy Edition)\09 - Dance No. 1.wav Peak level 89.0 %
Track quality 99.9 %
Test CRC 12FC0312
Copy CRC 12FC0312
Copy OK

Track 10
Filename D:\FLAC\Duke Ellington - Ellington Uptown (1952) [FLAC] (2004 Legacy Edition)\10 - Dance No. 2.wav Peak level 89.0 %
Track quality 100.0 %
Test CRC 9FB7A422
Copy CRC 9FB7A422
Copy OK

Track 11
Filename D:\FLAC\Duke Ellington - Ellington Uptown (1952) [FLAC] (2004 Legacy Edition)\11 - Dance No. 3.wav Peak level 89.0 %
Track quality 100.0 %
Test CRC B1C41059
Copy CRC B1C41059
Copy OK

Track 12
Filename D:\FLAC\Duke Ellington - Ellington Uptown (1952) [FLAC] (2004 Legacy Edition)\12 - Dance No. 4.wav Peak level 88.9 %
Track quality 99.9 %
Test CRC 285F7EF1
Copy CRC 285F7EF1
Copy OK

Track 13
Filename D:\FLAC\Duke Ellington - Ellington Uptown (1952) [FLAC] (2004 Legacy Edition)\13 - Dance No. 5.wav Peak level 89.0 %
Track quality 99.9 %
Test CRC 9C6D8066
Copy CRC 9C6D8066
Copy OK

No errors occured

End of status report
DOWNLOAD LINKS:
Buy Premium To Support Me & Get Resumable Support & Max Speed


Links are Interchangeable - No Password - Single Extraction
Direct Download


Tags: Ellington, Orchestra, Ellington, Uptown, Legacy

Duke Ellington & His Orchestra - Ellington Uptown (1952) (2004 Legacy Edition) Fast Download via Rapidshare Hotfile Fileserve Filesonic Megaupload, Duke Ellington & His Orchestra - Ellington Uptown (1952) (2004 Legacy Edition) Torrents and Emule Download or anything related.
Dear visitor, you went to website as unregistered user.
We encourage you to Register or Login to website under your name.
Information
Members of Guest cannot leave comments.