Britny Fox - Britny Fox (1988)

Category: Music | Comment: 0

Download Now

Britny Fox - Britny Fox (1988)

Britny Fox - Britny Fox (1988)
EAC Rip | FLAC (Img) + Cue + Log ~ 327 Mb | MP3 CBR320 ~ 109 Mb
Scans (JPG, 300 dpi) ~ 44 Mb | RAR 5% Recovery
Hard Rock, Glam Metal | Columbia #CK 44140

"One of the brighter debuts to emerge in the late '80s, Britny Fox established themselves early on as hard-hitting contenders, only to expose a glass jaw in subsequent bouts. Often labeled clones of sister band Cinderella (whence they got their image, guitar player, and record contract), the quartet overcame expectations by filling their first album with song after song of top-flight '80s glam, marred only slightly by the cliché-ridden lyrics. The boys each play to their strengths here, which results in killer riffs and licks from Michael Kelly Smith and impassioned howling from Dizzy Dean Davidson. On later platters, they would overextend their talents and become just another struggling bar band, so enjoy the chemistry while it's still there. Among the many highlights are "Long Way to Love," "Girlschool," and a cover of Slade's "Gudbuy t'Jane.""

Britny Fox - Britny Fox (1988)

Wiki | Discogs | All Music
***************

Britny Fox - Britny Fox (1988)

Track List:

01. Girlschool [04:41]
02. Long Way To Love [04:56]
03. Kick 'N' Fight [03:38]
04. Save The Weak [05:30]
05. Fun In Texas [04:29]
06. Rock Revolution [04:44]
07. Don't Hide [04:51]
08. Gudbuy T'Jane [04:29]
09. In America [04:27]
10. Hold On [03:31]

Exact Audio Copy V1.0 beta 6 from 9. April 2015

EAC extraction logfile from 7. November 2015, 8:43

Britny Fox / Britny Fox

Used drive : HL-DT-STDVDRAM GH22NS40 Adapter: 1 ID: 0

Read mode : Secure
Utilize accurate stream : Yes
Defeat audio cache : Yes
Make use of C2 pointers : No

Read offset correction

: 667
Overread into Lead-In and Lead-Out : No
Fill up missing offset samples with silence : Yes
Delete leading and trailing silent blocks : No
Null samples used in CRC calculations : Yes
Used interface
: Native Win32 interface for Win NT & 2000

Used output format : User Defined Encoder
Selected bitrate : 1024 kBit/s
Quality : High
Add ID3 tag : Yes
Command line compressor : C:\Program Files\Exact Audio Copy\Flac\flac.exe
Additional command line options : -V -8 -T "Date=%year%" -T "Genre=%genre%" %source%

TOC of the extracted CD Track | Start | Length | Start sector | End sector
--1 | 0:00.00 | 4:40.32 | 0 | 21031 2 | 4:40.32 | 4:55.38 | 21032 | 43194 3 | 9:35.70 | 3:38.00 | 43195 | 59544 4 | 13:13.70 | 5:29.20 | 59545 | 84239 5 | 18:43.15 | 4:28.35 | 84240 | 104374 6 | 23:11.50 | 4:43.10 | 104375 | 125609 7 | 27:54.60 | 4:50.02 | 125610 | 147361 8 | 32:44.62 | 4:28.73 | 147362 | 167534 9 | 37:13.60 | 4:26.35 | 167535 | 187519
10 | 41:40.20 | 3:31.00 | 187520 | 203344

Range status and errors

Selected range Filename I:\Rips\Britny Fox - Britny Fox.wav Peak level 100.0 %
Extraction speed 1.8 X
Range quality 100.0 %
Test CRC 14F1589B
Copy CRC 14F1589B
Copy OK

No errors occurred


AccurateRip summary

Track 1 accurately ripped (confidence 5) [186F4BC9] (AR v2)
Track 2 accurately ripped (confidence 6) [5A1394F2] (AR v2)
Track 3 accurately ripped (confidence 6) [8EE6A183] (AR v2)
Track 4 accurately ripped (confidence 6) [D76D2D03] (AR v2)
Track 5 accurately ripped (confidence 6) [55FE5B3E] (AR v2)
Track 6 accurately ripped (confidence 6) [33787CB4] (AR v2)
Track 7 accurately ripped (confidence 6) [15E39EE5] (AR v2)
Track 8 accurately ripped (confidence 6) [F52130CF] (AR v2)
Track 9 accurately ripped (confidence 6) AD4B065 (AR v2)
Track 10 accurately ripped (confidence 5) [7B6BC9D8] (AR v2)

All tracks accurately ripped

End of status report

- CUETools DB Plugin V2.1.6

[CTDB TOCID: MYJgfQIvWA22gHpfMBuyF8MzACs-] found
Submit result: already submitted
Track | CTDB Status
1 | (21/21) Accurately ripped
2 | (20/21) Accurately ripped
3 | (20/21) Accurately ripped
4 | (20/21) Accurately ripped
5 | (20/21) Accurately ripped
6 | (20/21) Accurately ripped
7 | (20/21) Accurately ripped
8 | (20/21) Accurately ripped
9 | (19/21) Accurately ripped
10 | (21/21) Accurately ripped

==== Log checksum 8A87966EF57CDD8CC487397A65109FB401513005D32A18418C5E91D25BAABFFA ====

foobar2000 1.2.6 / Dynamic Range Meter 1.1.1
log date: 2015-11-07 23:03:41

Analyzed: Britny Fox / Britny Fox

DR Peak RMS Duration Track

DR12 0.00 dB -14.05 dB 4:40 01-Girlschool
DR9 -2.08 dB -12.70 dB 4:56 02-Long Way To Love
DR12 0.00 dB -13.93 dB 3:38 03-Kick 'N' Fight
DR11 -0.77 dB -14.56 dB 5:29 04-Save The Weak
DR12 -0.53 dB -14.89 dB 4:28 05-Fun In Texas
DR12 0.00 dB -13.66 dB 4:43 06-Rock Revolution
DR12 -0.27 dB -14.18 dB 4:50 07-Don't Hide
DR11 -0.45 dB -13.65 dB 4:29 08-Gudbuy T'Jane
DR11 -0.34 dB -13.86 dB 4:26 09-In America
DR12 -0.14 dB -14.02 dB 3:31 10-Hold On

Number of tracks: 10
Official DR value: DR12

Samplerate: 44100 Hz
Channels: 2
Bits per sample: 16
Bitrate: 965 kbps
Codec: FLAC

[CUETools log; Date: 07.11.2015 23:03:42; Version: 2.1.5]
[CTDB TOCID: MYJgfQIvWA22gHpfMBuyF8MzACs-] found.
Track | CTDB Status
1 | (21/21) Accurately ripped
2 | (20/21) Accurately ripped
3 | (20/21) Accurately ripped
4 | (20/21) Accurately ripped
5 | (20/21) Accurately ripped
6 | (20/21) Accurately ripped
7 | (20/21) Accurately ripped
8 | (20/21) Accurately ripped
9 | (19/21) Accurately ripped
10 | (21/21) Accurately ripped
[AccurateRip ID: 001173cf-008b6498-8e0a970a] found.
Track [ CRC | V2 ] Status
01 [22673acc|186f4bc9] (17+05/61) Accurately ripped
02 [59a72672|5a1394f2] (16+06/62) Accurately ripped
03 [3677dbd8|8ee6a183] (17+06/62) Accurately ripped
04 [17d3096e|d76d2d03] (17+06/62) Accurately ripped
05 [e1dfe3a2|55fe5b3e] (17+06/62) Accurately ripped
06 [6c54273c|33787cb4] (17+06/60) Accurately ripped
07 [e0c5decb|15e39ee5] (17+06/61) Accurately ripped
08 75d915f|f52130cf (17+06/62) Accurately ripped
09 fd7c915|bad4b065 (17+06/62) Accurately ripped
10 [f86e148b|7b6bc9d8] (14+05/61) Accurately ripped
Offsetted by -661:
01 [8903e5ea] (03/61) Accurately ripped
02 [dbf59ca8] (03/62) Accurately ripped
03 [5401e858] (03/62) Accurately ripped
04 [4cb52626] (03/62) Accurately ripped
05 [803cda22] (03/62) Accurately ripped
06 [0b0d773c] (03/60) Accurately ripped
07 [d60c7008] (03/61) Accurately ripped
08 [96eaed20] (03/62) Accurately ripped
09 [ee507ac0] (03/62) Accurately ripped
10 [6f8ab050] (03/61) Accurately ripped
Offsetted by -107:
01 [497a01ae] (03/61) Accurately ripped
02 [57b667c6] (03/62) Accurately ripped
03 [5c2d0e0b] (03/62) Accurately ripped
04 1c13b0a (03/62) Accurately ripped
05 [a325b629] (03/62) Accurately ripped
06 [4359c1ab] (03/60) Accurately ripped
07 [4e60af24] (03/61) Accurately ripped
08 [982b777a] (03/62) Accurately ripped
09 [9c09da25] (03/62) Accurately ripped
10 [8507fc76] (03/61) Accurately ripped
Offsetted by 151:
01 [a5e11162] (06/61) Accurately ripped
02 [81bbfb22] (06/62) Accurately ripped
03 [4e79c53d] (06/62) Accurately ripped
04 [22bd079b] (06/62) Accurately ripped
05 [3bb1719a] (06/62) Accurately ripped
06 [7bde939d] (05/60) Accurately ripped
07 [867fbfa3] (06/61) Accurately ripped
08 [158452e4] (06/62) Accurately ripped
09 [456fbdb4] (06/62) Accurately ripped
10 [c9ba45c4] (04/61) Accurately ripped
Offsetted by 935:
01 [ca934d02] (04/61) Accurately ripped
02 [6e8107e3] (05/62) Accurately ripped
03 [f2ea9a0f] (04/62) Accurately ripped
04 [5d59c767] (04/62) Accurately ripped
05 [90fd2003] (04/62) Accurately ripped
06 e851700 (03/60) Accurately ripped
07 [1ee38071] (03/61) Accurately ripped
08 [ecb78ebc] (04/62) Accurately ripped
09 [fad7358f] (04/62) Accurately ripped
10 [4bdea218] (04/61) Accurately ripped

Track Peak [ CRC32 ] [W/O NULL] [ LOG ]
-- 100,0 [14F1589B] [3C370F56] CRC32
01 100,0 [5A9340C1] [CFB67FFC]
02 78,6 [1293C805] [125E92B7]
03 100,0 [60B5F43F] [CE5E8F61]
04 91,4 [436D0B3B] [00638F31]
05 94,1 F9F659A [1C81D042]
06 100,0 [980AF220] [0B899932]
07 96,9 [F313F5B2] [422B8FF3]
08 94,9 [C750C2D9] [5681CB08]
09 96,1 [63E0581B] [2C4DECC3]
10 98,4 [0DD02F42] [9155F8CD]

Britny Fox - Britny Fox (1988)

Britny Fox - Britny Fox (1988)


DOWNLOAD LINKS:
Buy Premium To Support Me & Get Resumable Support & Max Speed


Links are Interchangeable - No Password - Single Extraction
Direct Download


Tags: Britny, Britny

Britny Fox - Britny Fox (1988) Fast Download via Rapidshare Hotfile Fileserve Filesonic Megaupload, Britny Fox - Britny Fox (1988) Torrents and Emule Download or anything related.
Dear visitor, you went to website as unregistered user.
We encourage you to Register or Login to website under your name.
Information
Members of Guest cannot leave comments.