Al Di Meola / Eszter Horgas - He & Carmen (2008) {Danubius}

Category: Music | Comment: 0

Download Now

Al Di Meola / Eszter Horgas - He & Carmen (2008) {Danubius}

Al Di Meola / Eszter Horgas - He & Carmen (2008) {Danubius}
EAC 0.99pb5 | FLAC tracks level 8 | Cue+Log+M3U | Full Scans 300dpi | 401MB + 5% Recovery
Genre: Latin Jazz, Fusion, Classical

"In 2008 the world famous guitarist, Al DiMeola and the virtuoso Hungarian flute player, Eszter Horgas played together in Hungary to perform the remake of Bizet's "Carmen." The concert was recorded and leadto a remarkable album called "He & Carmen." The music combines classical, Latin and jazz elements to create a unique, atmospheric and passionate concert. The guitar and the flute, two very exciting instruments make a beautiful pair. The variety of the musicians, the American Al DiMeola, the Cuban Gumbi Ortiz, the Italian Peo Alfonsi, the Hungarian Eszter Horgas and the others made the performance even more original, bringing their own culture, adding their own personality to create a truly unique album."

Track List
01. Exordium
02. Cafe 1930
03. Double Concerto
04. Fugata
05. Entr' Act
06. Misterio
07. Miloga Del Angel
08. Dance Part 1
09. Dance Part 2
10. Habanera
11. Libertango
12. Finale

Recorded at Syma Csarnok, Budapest on 14th November 2008

musicians
Al Di Meola - guitar
Horgas Eszter - flute
Gumbi Ortiz - percussions
Cseke Gábor - piano
Lantos Zoltán - violin
Hárs Viktor - bass, double-bass
Peo Alfonsi - guitar
Kaszás Péter - drums

Produced by Gabor Guba

Exact Audio Copy V0.99 prebeta 5 from 4. May 2009

EAC extraction logfile from 20. October 2010, 15:58

Al Di Meola-Horgas Eszter / He & Carmen

Used drive : PLEXTOR CD-R PREMIUM2 Adapter: 1 ID: 1

Read mode : Secure
Utilize accurate stream : Yes
Defeat audio cache : Yes
Make use of C2 pointers : No

Read offset correction

: 30
Overread into Lead-In and Lead-Out : Yes
Fill up missing offset samples with silence : Yes
Delete leading and trailing silent blocks : No
Null samples used in CRC calculations : Yes
Used interface
: Installed external ASPI interface
Gap handling
: Appended to previous track

Used output format : User Defined Encoder
Selected bitrate : 32 kBit/s
Quality : High
Add ID3 tag : No
Command line compressor : C:\Programmi\FLAC\flac.exe
Additional command line options : -8 -V -T "ARTIST=%a" -T "TITLE=%t" -T "ALBUM=%g" -T "DATE=%y" -T "TRACKNUMBER=%n" -T "GENRE=%m" -T "COMMENT=EAC FLAC -8" %s

TOC of the extracted CD Track | Start | Length | Start sector | End sector
--1 | 0:00.00 | 9:55.54 | 0 | 44678 2 | 9:55.54 | 5:49.40 | 44679 | 70893 3 | 15:45.19 | 7:22.44 | 70894 | 104087 4 | 23:07.63 | 6:18.38 | 104088 | 132475 5 | 29:26.26 | 2:56.06 | 132476 | 145681 6 | 32:22.32 | 7:00.57 | 145682 | 177238 7 | 39:23.14 | 7:13.56 | 177239 | 209769 8 | 46:36.70 | 3:18.37 | 209770 | 224656 9 | 49:55.32 | 2:33.03 | 224657 | 236134
10 | 52:28.35 | 7:35.49 | 236135 | 270308
11 | 60:04.09 | 5:21.17 | 270309 | 294400
12 | 65:25.26 | 3:29.15 | 294401 | 310090

Track 1 Filename D:\My Rip\01 - Exordium.wav Pre-gap length 0:00:02.00 Peak level 86.7 %
Track quality 99.9 %
Test CRC F1F4F55A
Copy CRC F1F4F55A
Accurately ripped (confidence 6) [C020559B]
Copy OK

Track 2 Filename D:\My Rip\02 - Cafe 1930.wav Peak level 85.0 %
Track quality 100.0 %
Test CRC 8E10345E
Copy CRC 8E10345E
Accurately ripped (confidence 6) [762BCCAC]
Copy OK

Track 3 Filename D:\My Rip\03 - Double Concerto.wav Peak level 89.0 %
Track quality 100.0 %
Test CRC F398B472
Copy CRC F398B472
Accurately ripped (confidence 6) [C4274854]
Copy OK

Track 4 Filename D:\My Rip\04 - Fugata.wav Peak level 87.5 %
Track quality 100.0 %
Test CRC 8A439EDD
Copy CRC 8A439EDD
Accurately ripped (confidence 5) [E996C909]
Copy OK

Track 5 Filename D:\My Rip\05 - Entr' Act.wav Peak level 83.8 %
Track quality 100.0 %
Test CRC 913BBE10
Copy CRC 913BBE10
Accurately ripped (confidence 6) [61F8FD64]
Copy OK

Track 6 Filename D:\My Rip\06 - Misterio.wav Peak level 84.3 %
Track quality 100.0 %
Test CRC E9654851
Copy CRC E9654851
Accurately ripped (confidence 6) [5D755E3D]
Copy OK

Track 7 Filename D:\My Rip\07 - Miloga Del Angel.wav Peak level 83.4 %
Track quality 100.0 %
Test CRC D880837B
Copy CRC D880837B
Accurately ripped (confidence 6) [31C6D955]
Copy OK

Track 8 Filename D:\My Rip\08 - Dance Part 1.wav Peak level 87.7 %
Track quality 100.0 %
Test CRC C7E543A1
Copy CRC C7E543A1
Accurately ripped (confidence 6) [D4B244CD]
Copy OK

Track 9 Filename D:\My Rip\09 - Dance Part 2.wav Peak level 87.3 %
Track quality 100.0 %
Test CRC 4545AAED
Copy CRC 4545AAED
Accurately ripped (confidence 6) [4235A672]
Copy OK

Track 10 Filename D:\My Rip\10 - Habanera.wav Peak level 85.6 %
Track quality 100.0 %
Test CRC 132E7F4A
Copy CRC 132E7F4A
Accurately ripped (confidence 7) [03F44814]
Copy OK

Track 11 Filename D:\My Rip\11 - Libertango.wav Peak level 88.4 %
Track quality 100.0 %
Test CRC 07699598
Copy CRC 07699598
Accurately ripped (confidence 7) [A4F85B04]
Copy OK

Track 12 Filename D:\My Rip\12 - Finale.wav Peak level 94.8 %
Track quality 99.9 %
Test CRC 8FA83AA6
Copy CRC 8FA83AA6
Accurately ripped (confidence 5) [9DCC987A]
Copy OK

All tracks accurately ripped

No errors occurred

End of status report

Analyzed: Al Di Meola-Horgas Eszter / He & Carmen

DR Peak RMS Duration Track

DR9 -1.24 dB -13.11 dB 9:56 01-Exordium
DR11 -1.41 dB -16.89 dB 5:50 02-Cafe 1930
DR11 -1.01 dB -14.39 dB 7:23 03-Double Concerto
DR11 -1.15 dB -14.71 dB 6:19 04-Fugata
DR12 -1.54 dB -15.53 dB 2:56 05-Entr' Act
DR13 -1.48 dB -17.05 dB 7:01 06-Misterio
DR12 -1.57 dB -16.15 dB 7:14 07-Miloga Del Angel
DR13 -1.14 dB -16.44 dB 3:18 08-Dance Part 1
DR12 -1.18 dB -15.29 dB 2:33 09-Dance Part 2
DR11 -1.35 dB -14.29 dB 7:36 10-Habanera
DR9 -1.07 dB -12.01 dB 5:21 11-Libertango
DR10 -0.46 dB -14.49 dB 3:29 12-Finale

Number of tracks: 12
Official DR value: DR11

Samplerate: 44100 Hz
Channels: 2
Bits per sample: 16
Bitrate: 889 kbps
Codec: FLAC

Al Di Meola / Eszter Horgas - He & Carmen (2008) {Danubius}

Al Di Meola / Eszter Horgas - He & Carmen (2008) {Danubius}

Al Di Meola / Eszter Horgas - He & Carmen (2008) {Danubius}

Rip by Sarchiapone


DOWNLOAD LINKS:
Buy Premium To Support Me & Get Resumable Support & Max Speed


Links are Interchangeable - No Password - Single Extraction
Direct Download


Tags: Eszter, Horgas, Carmen, Danubius

Al Di Meola / Eszter Horgas - He & Carmen (2008) {Danubius} Fast Download via Rapidshare Hotfile Fileserve Filesonic Megaupload, Al Di Meola / Eszter Horgas - He & Carmen (2008) {Danubius} Torrents and Emule Download or anything related.
Dear visitor, you went to website as unregistered user.
We encourage you to Register or Login to website under your name.
Information
Members of Guest cannot leave comments.