TarantinosNYC - Surfin' The Silver Screen (2015) 151217

Category: Music | Comment: 0

Download Now

TarantinosNYC - Surfin' The Silver Screen (2015) 151217

TarantinosNYC - Surfin' The Silver Screen (2015) 151217
EAC Rip | FLAC (Img) + Cue + Log ~ 334 Mb | MP3 CBR320 ~ 139 Mb
Scans Included (JPG, 600 dpi) | RAR 5% Recovery
Surf Rock, Spy, Spaghetti Western | TarantinosNYC #889211418695

"This 2nd album from the TarantinosNYC features 2 tracks from Tarantino's latest, Django Unchained, and 2 from Pulp Fiction. Also features a collection of soundtrack favorites from 60s and 70s surf, soul, spy and spaghetti western films and 6 originals!"
TarantinosNYC - Surfin' The Silver Screen (2015) 151217
Track List:
01. Shindig [02:05]
02. Bullwinkle Part II [02:24]
03. You Only Live Twice [02:35]
04. Dust-Up [02:30]
05. Son of a Preacher Man [02:45]
06. Our Man Flint/ Dr. Evil [02:02]
07. Soul Bossa Nova [02:45]
08. Spanish Steps [03:36]
09. Our Man in Amsterdam [02:40]
10. Man From Nowhere [02:17]
11. Django (Theme from) [02:46]
12. Lo Chiamavano King [02:27]
13. Korla's Theme [03:54]
14. Shake Some Evil [02:23]
15. Positraction [03:11]
16. Hell's Belles [02:58]
17. Our Man in Amsterdam (Garage Mix) [02:42]
Exact Audio Copy V1.0 beta 3 from 29. August 2011
1 | 0:00.00 | 2:04.59 | 0 | 9358
2 | 2:04.59 | 2:23.55 | 9359 | 20138
3 | 4:28.39 | 2:34.06 | 20139 | 31694
4 | 7:02.45 | 2:29.61 | 31695 | 42930
5 | 9:32.31 | 2:44.17 | 42931 | 55247
6 | 12:16.48 | 2:01.36 | 55248 | 64358
7 | 14:18.09 | 2:44.04 | 64359 | 76662
8 | 17:02.13 | 3:35.60 | 76663 | 92847
9 | 20:37.73 | 2:39.19 | 92848 | 104791
10 | 23:17.17 | 2:16.56 | 104792 | 115047
11 | 25:33.73 | 2:45.43 | 115048 | 127465
12 | 28:19.41 | 2:26.64 | 127466 | 138479
13 | 30:46.30 | 3:53.52 | 138480 | 156006
14 | 34:40.07 | 2:22.59 | 156007 | 166715
15 | 37:02.66 | 3:10.35 | 166716 | 181000
16 | 40:13.26 | 2:57.51 | 181001 | 194326
17 | 43:11.02 | 2:42.00 | 194327 | 206476
foobar2000 1.2.6 / Dynamic Range Meter 1.1.1
log date: 2015-08-08 22:06:31
Analyzed: TarantinosNYC / Surfin' The Silver Screen
DR Peak RMS Duration Track
DR10 -0.44 dB -10.75 dB 2:05 01-Shindig
DR9 -0.44 dB -9.84 dB 2:24 02-Bullwinkle Part II
DR9 -0.45 dB -10.56 dB 2:34 03-You Only Live Twice
DR9 -0.44 dB -11.18 dB 2:30 04-Dust-Up
DR10 -0.43 dB -11.37 dB 2:44 05-Son of a Preacher Man
DR9 -0.44 dB -10.00 dB 2:01 06-Our Man Flint/ Dr. Evil
DR9 -0.42 dB -10.77 dB 2:44 07-Soul Bossa Nova
DR8 -0.43 dB -9.99 dB 3:36 08-Spanish Steps
DR9 -0.42 dB -10.38 dB 2:39 09-Our Man in Amsterdam
DR9 -0.42 dB -10.38 dB 2:17 10-Man From Nowhere
DR10 -0.42 dB -11.68 dB 2:46 11-Django (Theme from)
DR10 -0.44 dB -11.27 dB 2:27 12-Lo Chiamavano King
DR9 -0.44 dB -11.29 dB 3:54 13-Korla's Theme
DR11 -0.46 dB -12.70 dB 2:23 14-Shake Some Evil
DR11 -0.46 dB -11.95 dB 3:10 15-Positraction
DR11 -0.44 dB -12.75 dB 2:58 16-Hell's Belles
DR9 -0.43 dB -10.96 dB 2:42 17-Our Man in Amsterdam (Garage Mix)
Number of tracks: 17
Official DR value: DR10
Samplerate: 44100 Hz
Channels: 2
Bits per sample: 16
Bitrate: 884 kbps
Codec: FLAC
[CUETools log; Date: 08.08.2015 22:06:31; Version: 2.1.5]
[CTDB TOCID: .wN8hw2h03OvfgtbbTftjUyn18Q-] disk not present in database.
[AccurateRip ID: 001b3704-015d5cab-db0ac111] found.
Track [ CRC | V2 ] Status
01 [e453b363|fab99a7b] (0+1/1) Accurately ripped
02 [e2ee2905|ad51411b] (0+1/1) Accurately ripped
03 [7346a1a5|9ed1a4fe] (0+1/1) Accurately ripped
04 [9f09185e|a28f9aa4] (0+1/1) Accurately ripped
05 [c7dccb08|d451847a] (0+1/1) Accurately ripped
06 [5f1463ed|e24a86c6] (0+1/1) Accurately ripped
07 [e219c542|4cb86509] (0+1/1) Accurately ripped
08 [e566265a|a40fd808] (0+1/1) Accurately ripped
09 [27d215ac|0a432993] (0+1/1) Accurately ripped
10 [969c2e2f|d2f99dd9] (0+1/1) Accurately ripped
11 [34b70d66|d19565d4] (0+1/1) Accurately ripped
12 [3507f25a|0eca7872] (0+1/1) Accurately ripped
13 [73d53c7f|17793bc9] (0+1/1) Accurately ripped
14 [3d13b72b|20f3d280] (0+1/1) Accurately ripped
15 [d6d0bf9c|23a9592e] (0+1/1) Accurately ripped
16 dfdf8ac|362bc670 (0+1/1) Accurately ripped
17 [243d69db|c0e1059b] (0+1/1) Accurately ripped
Track Peak [ CRC32 ] [W/O NULL] [ LOG ]
-- 95,3 [D8D9AAC2] [3CC70423] CRC32
01 95,0 [3B53AFC9] [FD6AACB4]
02 95,0 [8DEF3AFC] [3D508BB5]
03 94,9 [4F0EA5B3] [9C76F359]
04 95,0 [56C4FD08] [2C170B55]
05 95,1 [926BDAF9] [C86D446C]
06 95,0 [AC732669] [1B3411F8]
07 95,2 [3A2EE273] [04B6457B]
08 95,2 [D6A82750] [E9CEF4D3]
09 95,3 [90A2595E] [EA6FD0E2]
10 95,2 [A2F79561] [EDD51317]
11 95,3 [1A6D7285] [6B6D99FA]
12 95,0 [C5AB13E9] [3979E499]
13 95,0 [04FCAFE9] [416D7FE9]
14 94,8 [C2651313] [E50E1D87]
15 94,8 [A8244F69] [741CD6EB]
16 95,0 [F291DC3E] [F42CD5FB]
17 95,1 [5F977B36] [5072DDF8]
TarantinosNYC - Surfin' The Silver Screen (2015) 151217
Buy a premium to download file with fast speed
Rapidgator.net
thanks
http://rapidgator.net/file/f3de7d3b7bb22a2c13bbd94a4cf2cdfd/bsap1.TrntnsNYC15.part1.rar.html
http://rapidgator.net/file/83877d188790a9fc8745ba3d4dfb95e4/bsap1.TrntnsNYC15.part2.rar.html
http://rapidgator.net/file/62c21765d2f53702cfeab95c8a6cdcd9/bsap1.TrntnsNYC15mp3.rar.html
http://rapidgator.net/file/e4bc1dd5deb27b22775a14eb7e310fee/bsap1.TrntnsNYC15mp3.rar.html
Direct Download


Tags: TarantinosNYC, Surfin, Silver, Screen

TarantinosNYC - Surfin' The Silver Screen (2015) 151217 Fast Download via Rapidshare Hotfile Fileserve Filesonic Megaupload, TarantinosNYC - Surfin' The Silver Screen (2015) 151217 Torrents and Emule Download or anything related.
Dear visitor, you went to website as unregistered user.
We encourage you to Register or Login to website under your name.
Information
Members of Guest cannot leave comments.