Sophie Zelmani - Going Home (2014) 160209

Category: Music | Comment: 0

Download Now

Sophie Zelmani - Going Home (2014) 160209

Sophie Zelmani - Going Home (2014) 160209
Sophie Zelmani - Going Home (2014)
EAC | FLAC | Tracks (Cue&Log) ~ 322 Mb (incl 5%) | Mp3 (CBR320) ~ 135 Mb (incl 5%) | Scans ~ 123 Mb
Genre: Singer/Songwriter, Folk, Indie Pop/Rock | Label: Oh Dear Recording | # ODRCD01 | Time: 00:56:25
"2014 release on the Swedish singer/songwriter's own label. Includes new recordings of songs from her previous albums plus a brand new song," Aftermath"."

"With no musical background and without ever having performed in public, Zelmani rose to the top of the charts with her debut album. In spite of being known as very shy, she soon reached an audience all over Europe and Asia with her tender singer/songwriter country. Zelmani got her first guitar at the age of 14 and was taught some chords by her father. She learned to write songs, and almost ten years later, sent a few tapes to various record companies. Sony replied first and brought her together with producer and guitarist Lars Halapi, known for having worked with Ulf Lundell and Bo Kaspers Orkester. But the very close collaboration with Zelmani, where Halapi had total control over the arrangements, was perhaps his most successful. He gave her self-titled debut a flavor of early Van Morrison, but it was Zelmani who had written all the songs and whose clear and fragile voice gave them an air of honesty. The album entered the charts at number four in the winter of 1995 and soon it had gone gold in Sweden and Japan. Zelmani made a big promotional tour throughout Europe and then went to promote the album in the U.S., where similar female singer/songwriters, like Jewel, were successful. Precious Burden was released in 1998, and if it wasn't the same immediate success as the debut, it got very good reviews. Trying to keep the touring at a minimum, the shy star was not able to avoid fame totally and learned to cope with it more and more. The previous two albums had very much been studio products with Halapi producing and playing many of the instruments, but for the next album, Zelmani formed a real band.
Lars Lov?n, Allmusic.com
"
http://i72.fastpic.ru/big/2015/0925/f0/24b4a07a876c18a7e9786c5ef23e9cf0.jpg
Sophie Zelmani at Allmusic
Sophie Zelmani Website
Sophie Zelmani at Wiki
Tracklist:
01. Dreamer (04:46)
02. Going Home (04:01)
03. I Can't Change (04:13)
04. To Know You (03:23)
05. Wait For Cry (03:42)
06. Aftermath (03:00)
07. Got To Stop (06:36)
08. Maja's Song (04:00)
09. Love On My Mind (03:53)
10. Gone With The Madness (03:01)
11. Happier Man (04:23)
12. Oh Dear (08:10)
13. I'll Remember You (03:10)
Exact Audio Copy V1.0 beta 3 from 29. August 2011
EAC extraction logfile from 17. October 2014, 21:00
Sophie Zelmani / Going home
Used drive : PLEXTOR CD-R PX-W4824A Adapter: 1 ID: 0
Read mode : Secure
Utilize accurate stream : Yes
Defeat audio cache : Yes
Make use of C2 pointers : No
Read offset correction
: 98
Overread into Lead-In and Lead-Out : No
Fill up missing offset samples with silence : Yes
Delete leading and trailing silent blocks : No
Null samples used in CRC calculations : Yes
Used interface
: Native Win32 interface for Win NT & 2000
Gap handling
: Appended to previous track
Used output format : User Defined Encoder
Selected bitrate : 128 kBit/s
Quality : High
Add ID3 tag : No
Command line compressor : C:\Program Files (x86)\FLAC\flac.exe
Additional command line options : -V -8 -T "Genre=%genre%" -T "Artist=%artist%" -T "Title=%title%" -T "Album=%albumtitle%" -T "Date=%year%" -T "Tracknumber=%tracknr%" -T "Comment=%comment%" %source%
TOC of the extracted CD Track | Start | Length | Start sector | End sector
--1 | 0:00.00 | 4:46.69 | 0 | 21518 2 | 4:46.69 | 4:01.54 | 21519 | 39647 3 | 8:48.48 | 4:13.60 | 39648 | 58682 4 | 13:02.33 | 3:23.74 | 58683 | 73981 5 | 16:26.32 | 3:42.38 | 73982 | 90669 6 | 20:08.70 | 3:00.27 | 90670 | 104196 7 | 23:09.22 | 6:36.67 | 104197 | 133963 8 | 29:46.14 | 4:00.21 | 133964 | 151984 9 | 33:46.35 | 3:53.15 | 151985 | 169474
10 | 37:39.50 | 3:01.27 | 169475 | 183076
11 | 40:41.02 | 4:23.00 | 183077 | 202801
12 | 45:04.02 | 8:10.09 | 202802 | 239560
13 | 53:14.11 | 3:10.65 | 239561 | 253875
Track 1 Filename D:\??? ???????\Sophie Zelmani - Going Home (2014 )\01 Dreamer.wav Pre-gap length 0:00:02.00 Peak level 98.8 %
Extraction speed 8.4 X
Track quality 100.0 %
Test CRC F91951A5
Copy CRC F91951A5
Accurately ripped (confidence 12) [62BACE4A] (AR v2)
Copy OK
Track 2 Filename D:\??? ???????\Sophie Zelmani - Going Home (2014 )\02 Going home.wav Peak level 98.8 %
Extraction speed 9.2 X
Track quality 100.0 %
Test CRC 3041E02A
Copy CRC 3041E02A
Accurately ripped (confidence 12) [8562EA72] (AR v2)
Copy OK
Track 3 Filename D:\??? ???????\Sophie Zelmani - Going Home (2014 )\03 I can't change.wav Peak level 98.8 %
Extraction speed 10.1 X
Track quality 100.0 %
Test CRC 08402C4C
Copy CRC 08402C4C
Accurately ripped (confidence 12) [23593666] (AR v2)
Copy OK
Track 4 Filename D:\??? ???????\Sophie Zelmani - Going Home (2014 )\04 To know you.wav Peak level 98.8 %
Extraction speed 10.5 X
Track quality 100.0 %
Test CRC C0464681
Copy CRC C0464681
Accurately ripped (confidence 12) [08BBA3A6] (AR v2)
Copy OK
Track 5 Filename D:\??? ???????\Sophie Zelmani - Going Home (2014 )\05 Wait for cry.wav Peak level 98.8 %
Extraction speed 11.2 X
Track quality 100.0 %
Test CRC 08D804FC
Copy CRC 08D804FC
Accurately ripped (confidence 12) [84201DDB] (AR v2)
Copy OK
Track 6 Filename D:\??? ???????\Sophie Zelmani - Going Home (2014 )\06 Aftermath.wav Peak level 98.8 %
Extraction speed 11.3 X
Track quality 100.0 %
Test CRC 80821F75
Copy CRC 80821F75
Accurately ripped (confidence 12) [6A482480] (AR v2)
Copy OK
Track 7 Filename D:\??? ???????\Sophie Zelmani - Going Home (2014 )\07 Got to stop.wav Peak level 98.8 %
Extraction speed 12.8 X
Track quality 100.0 %
Test CRC B3FABAD6
Copy CRC B3FABAD6
Accurately ripped (confidence 12) [963D5F1E] (AR v2)
Copy OK
Track 8 Filename D:\??? ???????\Sophie Zelmani - Going Home (2014 )\08 Maja's song.wav Peak level 98.8 %
Extraction speed 12.6 X
Track quality 100.0 %
Test CRC 59BF2484
Copy CRC 59BF2484
Accurately ripped (confidence 12) [8327B8BC] (AR v2)
Copy OK
Track 9 Filename D:\??? ???????\Sophie Zelmani - Going Home (2014 )\09 Love on my mind.wav Peak level 98.8 %
Extraction speed 12.8 X
Track quality 100.0 %
Test CRC 1E27F88F
Copy CRC 1E27F88F
Accurately ripped (confidence 12) CB25C4F (AR v2)
Copy OK
Track 10 Filename D:\??? ???????\Sophie Zelmani - Going Home (2014 )\10 Gone with the madness.wav Peak level 98.8 %
Extraction speed 12.7 X
Track quality 100.0 %
Test CRC FCAD84B9
Copy CRC FCAD84B9
Accurately ripped (confidence 12) DC461F5 (AR v2)
Copy OK
Track 11 Filename D:\??? ???????\Sophie Zelmani - Going Home (2014 )\11 Happier man.wav Peak level 98.8 %
Extraction speed 13.2 X
Track quality 100.0 %
Test CRC B6644825
Copy CRC B6644825
Accurately ripped (confidence 12) [66AE2E31] (AR v2)
Copy OK
Track 12 Filename D:\??? ???????\Sophie Zelmani - Going Home (2014 )\12 Oh dear.wav Peak level 98.8 %
Extraction speed 14.1 X
Track quality 100.0 %
Test CRC 80424B48
Copy CRC 80424B48
Accurately ripped (confidence 12) 04C0771 (AR v2)
Copy OK
Track 13 Filename D:\??? ???????\Sophie Zelmani - Going Home (2014 )\13 I'll remember you.wav Peak level 98.8 %
Extraction speed 12.0 X
Track quality 100.0 %
Test CRC 8CD1B135
Copy CRC 8CD1B135
Accurately ripped (confidence 12) [68D8EB75] (AR v2)
Copy OK
All tracks accurately ripped
No errors occurred
End of status report
==== Log checksum BD35A22CF9357CE90D9C2F3F92E27DD72FFB01E4AF474CAD57183A4E2344AC9F ====
foobar2000 1.2 / Dynamic Range Meter 1.1.1
log date: 2015-09-23 21:28:29
Analyzed: Sophie Zelmani / Going home
DR Peak RMS Duration Track
DR10 -0.10 dB -13.14 dB 4:47 01-Dreamer
DR9 -0.10 dB -11.21 dB 4:02 02-Going home
DR10 -0.10 dB -13.85 dB 4:14 03-I can't change
DR9 -0.10 dB -11.44 dB 3:24 04-To know you
DR10 -0.10 dB -13.77 dB 3:43 05-Wait for cry
DR10 -0.10 dB -13.73 dB 3:00 06-Aftermath
DR9 -0.10 dB -13.46 dB 6:37 07-Got to stop
DR9 -0.10 dB -12.52 dB 4:00 08-Maja's song
DR8 -0.10 dB -12.33 dB 3:53 09-Love on my mind
DR11 -0.10 dB -13.03 dB 3:01 10-Gone with the madness
DR9 -0.10 dB -12.17 dB 4:23 11-Happier man
DR11 -0.10 dB -14.94 dB 8:10 12-Oh dear
DR13 -0.10 dB -15.96 dB 3:11 13-I'll remember you
Number of tracks: 13
Official DR value: DR10
Samplerate: 44100 Hz
Channels: 2
Bits per sample: 16
Bitrate: 638 kbps
Codec: FLAC
Sophie Zelmani - Going Home (2014) 160209
Sophie Zelmani - Going Home (2014) 160209
All thanks to original releaser - nikolux
Password: designol
Buy a premium to download file with fast speed
Rapidgator.net
thanks
http://rapidgator.net/file/2014a086975a2a74218863fdcc3615c4/ybpap.SZ1mani14.flac.rar.html
http://rapidgator.net/file/917cda11c9f3ddcf5c1777a25b247602/ybpap.SZ1mani14.mp3.rar.html
http://rapidgator.net/file/10dfe8d0184c8ce7c556e8c427071bfd/ybpap.SZ1mani14.scans.rar.html
Direct Download


Tags: Sophie, Zelmani

Sophie Zelmani - Going Home (2014) 160209 Fast Download via Rapidshare Hotfile Fileserve Filesonic Megaupload, Sophie Zelmani - Going Home (2014) 160209 Torrents and Emule Download or anything related.
Dear visitor, you went to website as unregistered user.
We encourage you to Register or Login to website under your name.
Information
Members of Guest cannot leave comments.