VA - American Gigolo (Original Soundtrack Recording) (1980) {1990 Polydor CD}

Category: Music | Comment: 0

Download Now

VA - American Gigolo (Original Soundtrack Recording) (1980) {1990 Polydor CD}

VA - American Gigolo (Original Soundtrack Recording) (1980) {1990 Polydor CD}
EAC Rip | FLAC with CUE and log | scans | 222 mb
MP3 CBR 320kbps | RAR | 83 mb
Genre: soundtrack, new wave, rock, pop, electronic

This is the soundtrack to the 1980 film American Gigolo. The soundtrack was anchored by the hit song "Call Me" by New York new wavers Blondie and the rest of the CD featured music by Giorgio Moroder. The album also featured a cut by Cheryl Barnes. This is taken from the Polydor CD released in 1990, the first digital version of this soundtrack, digitally remastered by Jeff Willens.
VA - American Gigolo (Original Soundtrack Recording) (1980) {1990 Polydor CD}

1. Blondie - Call Me (Theme From American Gigolo) (8:04)
2. Cheryl Barnes - Love And Passion (6:34)
3. Giorgio Moroder - Night Drive (3:52)
4. Giorgio Moroder - Hello Mr W.A.M. (Finale) (4:30)
5. Giorgio Moroder - The Apartment (4:27)
6. Giorgio Moroder - Palm Springs Drive (3:22)
7. Giorgio Moroder - Night Drive (Reprise) (2:50)
8. Giorgio Moroder - The Seduction (Love Theme) (3:14)

Album produced by Giorgio Moroder
Keith Forsey-drums and percussion
Harold Faltermeyer-keyboards and music arranging

Recorded at Westlake Audio, Los Angeles, California
Mixed and mastered by Allen Zentz Recording

Reissue supervised by Bill Levenson
Digitally remastered by Jeff Willens at Universal Mastering Studios-East
VA - American Gigolo (Original Soundtrack Recording) (1980) {1990 Polydor CD}
EAC Log Exact Audio Copy V1.1 from 23. June 2015

EAC extraction logfile from 1. April 2016, 20:01

Unknown Artist / American Gigolo (Original Soundtrack Recording)

Used drive : TEAC DVD-ROM DV-28SW Adapter: 1 ID: 0

Read mode : Secure
Utilize accurate stream : Yes
Defeat audio cache : Yes
Make use of C2 pointers : No

Read offset correction

: 6
Overread into Lead-In and Lead-Out : No
Fill up missing offset samples with silence : Yes
Delete leading and trailing silent blocks : No
Null samples used in CRC calculations : Yes
Used interface
: Native Win32 interface for Win NT & 2000
Gap handling
: Left out

Used output format : Internal WAV Routines
Sample format : 44.100 Hz; 16 Bit; Stereo

TOC of the extracted CD Track | Start | Length | Start sector | End sector
-1 | 0:00.00 | 8:09.62 | 0 | 36736 2 | 8:09.62 | 5:51.10 | 36737 | 63071 3 | 14:00.72 | 3:54.48 | 63072 | 80669 4 | 17:55.45 | 4:36.57 | 80670 | 101426 5 | 22:32.27 | 4:31.50 | 101427 | 121801 6 | 27:04.02 | 3:25.70 | 121802 | 137246 7 | 30:29.72 | 2:52.25 | 137247 | 150171 8 | 33:22.22 | 3:14.00 | 150172 | 164721

Track 1 Filename C:\My Documents\My FLAC\VA - American Gigolo (Original Soundtrack Recording) (1980) [FLAC] {1990 Polydor CD}\01 - Blondie - Call Me (Theme From American Gigolo).wav Pre-gap length 0:00:02.00 Peak level 100.0 %
Extraction speed 2.8 X
Track quality 100.0 %
Test CRC F807C4DE
Copy CRC F807C4DE
Track not fully ripped for AccurateRip lookup
Copy OK

Track 2 Filename C:\My Documents\My FLAC\VA - American Gigolo (Original Soundtrack Recording) (1980) [FLAC] {1990 Polydor CD}\02 - Cheryl Barnes - Love And Passion.wav Pre-gap length 0:00:06.37 Peak level 99.9 %
Extraction speed 2.5 X
Track quality 99.9 %
Test CRC 7720E327
Copy CRC 7720E327
Track not fully ripped for AccurateRip lookup
Copy OK

Track 3 Filename C:\My Documents\My FLAC\VA - American Gigolo (Original Soundtrack Recording) (1980) [FLAC] {1990 Polydor CD}\03 - Giorgio Moroder - Night Drive.wav Pre-gap length 0:00:03.65 Peak level 100.0 %
Extraction speed 3.1 X
Track quality 100.0 %
Test CRC E993B0D2
Copy CRC E993B0D2
Track not fully ripped for AccurateRip lookup
Copy OK

Track 4 Filename C:\My Documents\My FLAC\VA - American Gigolo (Original Soundtrack Recording) (1980) [FLAC] {1990 Polydor CD}\04 - Giorgio Moroder - Hello Mr. W.A.M. (Finale).wav Pre-gap length 0:00:04.40 Peak level 100.0 %
Extraction speed 2.9 X
Track quality 100.0 %
Test CRC 16E4C78E
Copy CRC 16E4C78E
Track not fully ripped for AccurateRip lookup
Copy OK

Track 5 Filename C:\My Documents\My FLAC\VA - American Gigolo (Original Soundtrack Recording) (1980) [FLAC] {1990 Polydor CD}\05 - Giorgio Moroder - The Apartment.wav Pre-gap length 0:00:05.22 Peak level 81.6 %
Extraction speed 3.2 X
Track quality 99.9 %
Test CRC D6FDFA86
Copy CRC D6FDFA86
Track not fully ripped for AccurateRip lookup
Copy OK

Track 6 Filename C:\My Documents\My FLAC\VA - American Gigolo (Original Soundtrack Recording) (1980) [FLAC] {1990 Polydor CD}\06 - Giorgio Moroder - Palm Springs Drive.wav Pre-gap length 0:00:04.55 Peak level 100.0 %
Extraction speed 4.2 X
Track quality 100.0 %
Test CRC B1714667
Copy CRC B1714667
Track not fully ripped for AccurateRip lookup
Copy OK

Track 7 Filename C:\My Documents\My FLAC\VA - American Gigolo (Original Soundtrack Recording) (1980) [FLAC] {1990 Polydor CD}\07 - Giorgio Moroder - Night Drive (Reprise).wav Pre-gap length 0:00:04.50 Peak level 73.9 %
Extraction speed 3.6 X
Track quality 100.0 %
Test CRC 00DB7E90
Copy CRC 00DB7E90
Track not fully ripped for AccurateRip lookup
Copy OK

Track 8 Filename C:\My Documents\My FLAC\VA - American Gigolo (Original Soundtrack Recording) (1980) [FLAC] {1990 Polydor CD}\08 - Giorgio Moroder - The Seduction (Love Theme).wav Pre-gap length 0:00:02.22 Peak level 96.6 %
Extraction speed 2.9 X
Track quality 100.0 %
Test CRC D96F4A85
Copy CRC D96F4A85
Accurately ripped (confidence 2) [989FADA6] (AR v2)
Copy OK

1 track(s) accurately ripped
7 track(s) not fully ripped for AccurateRip lookup

Some tracks could not be verified as accurate

No errors occurred

End of status report

==== Log checksum 0EDA9B0F4DC1BD4AD0CE85CE07B651C10E8D0F2740055DCFAE8BF6AF066DFD04 ====
DOWNLOAD LINKS:
Buy Premium To Support Me & Get Resumable Support & Max Speed


Links are Interchangeable - No Password - Single Extraction
Direct Download


Tags: American, Gigolo, Original, Soundtrack, Recording, Polydor

VA - American Gigolo (Original Soundtrack Recording) (1980) {1990 Polydor CD} Fast Download via Rapidshare Hotfile Fileserve Filesonic Megaupload, VA - American Gigolo (Original Soundtrack Recording) (1980) {1990 Polydor CD} Torrents and Emule Download or anything related.
Dear visitor, you went to website as unregistered user.
We encourage you to Register or Login to website under your name.
Information
Members of Guest cannot leave comments.