The J.B.'s - Funky Good Time: The Anthology (2CD) (1995) {James Brown}

Category: Music | Comment: 0

Download Now

http://ultraimg.com/images/lam32KO1465130294540.jpg

The J.B.'s - Funky Good Time: The Anthology (2CD) (1995)
EAC Rip | FLAC with CUE and log | scans | 891 mb
MP3 CBR 320kbps | RAR | 357 mb
Genre: R&B, soul, funk

Funky Good Time: The Anthology is a 2CD compilation by The J.B.'s released on 28 February, 1995. The J.B.'s were James Brown's backing band, who performed and released names under numerous names, including Fred Wesley & The J.B.'s, Maceo & The Macks, and The Last Word. This comp compiles some of the best, including in full length versions that were rare or previously unreleased in this form.
http://ultraimg.com/images/Aa3ugjVPE1465130295915.jpg

DISC 1
01. Fred Wesley & The J.B.'s - Introduction To The J.B.'s/Doing It To Death
02. The J.B.'s - The Grunt (Parts 1 & 2)
03. The J.B.'s - My Brother (Parts 1 & 2)
04. The J.B.'s - Pass The Peas
05. The J.B.'s - Gimme Some More
06. Fred Wesley & The J.B.'s - J.B. Shout
07. The J.B.'s - Blessed Blackness
08. The J.B.'s - Hot Pants Road
09. The J.B.'s - Givin' Up Food For Funk (Parts 1 & 2)
10. James Brown Soul Train, The - Honky Tonk (Parts 1)
11. Fred Wesley & The J.B.'s - Dirty Harri
12. Fred Wesley & The J.B.'s - Watermelon Man
13. Maceo & The Macks - Parrty (Parts 1 & 2)
14. Fred Wesley & The J.B.'s - You Can Have Watergate Just Gimme Some Bucks And I'll Be Straight
15. Fred Wesley & The J.B.'s - More Peas

DISC 2
01. The J.B.'s - Gimme Some More (Very Live)
02. Fred Wesley & The J.B.'s - Same Beat (Parts 1, 2 & 3)
03. Fred Wesley & The J.B.'s - If Don't Get It The First Time, Back Up And Try It Again, Party
04. Fred Wesley & The J.B.'s - Damn Right I Am Somebody 05. Fred Wesley & The J.B.'s - I'm Payin' Taxes, What Am I Buyin'
06. Maceo & The Macks - Soul Power '74
07. The Last Word - Keep On Bumpin' Before You Give Out Of Gas
08. Fred & The New J.B.'s - Breakin' Bread
09. Fred & The New J.B.'s - Rockin' Funky Watergate
10. The First Family (The Godfather/J.B.'s/Lyn Collins/Lee Austin/Maceo) - Control (People Go Where We Send You), Part. 1
11. Maceo & The Macks - Cross The Track (We Better Go Back)
12. The J.B.'s - All Aboard The Soul Funky Train
13. The J.B.'s - (It's Not The Express) It's The J.B.'s Monaural
14. Maceo - Future Shock (Dance Your Pants Off)
15. The J.B.'s With James Brown - Everybody Wanna Get Funky One More Time (Part 1)


http://ultraimg.com/images/uJPHm1465130296540.jpg


EAC Log


Exact Audio Copy V1.1 from 23. June 2015

EAC extraction logfile from 28. May 2016, 15:24

The J.B.'s / Funky Good Time: The Anthology (Disc 1)

Used drive : TEAC DVD-ROM DV-28SW Adapter: 1 ID: 0

Read mode : Secure
Utilize accurate stream : Yes
Defeat audio cache : Yes
Make use of C2 pointers : No

Read offset correction : 6
Overread into Lead-In and Lead-Out : No
Fill up missing offset samples with silence : Yes
Delete leading and trailing silent blocks : No
Null samples used in CRC calculations : Yes
Used interface : Native Win32 interface for Win NT & 2000
Gap handling : Left out

Used output format : Internal WAV Routines
Sample format : 44.100 Hz; 16 Bit; Stereo

TOC of the extracted CD

Track | Start | Length | Start sector | End sector
-----------------------------
1 | 0:00.00 | 12:35.37 | 0 | 56661
2 | 12:35.37 | 3:32.28 | 56662 | 72589
3 | 16:07.65 | 5:39.25 | 72590 | 98039
4 | 21:47.15 | 3:30.25 | 98040 | 113814
5 | 25:17.40 | 3:07.12 | 113815 | 127851
6 | 28:24.52 | 2:49.35 | 127852 | 140561
7 | 31:14.12 | 3:47.03 | 140562 | 157589
8 | 35:01.15 | 2:45.22 | 157590 | 169986
9 | 37:46.37 | 5:48.38 | 169987 | 196124
10 | 43:35.00 | 3:05.65 | 196125 | 210064
11 | 46:40.65 | 3:12.37 | 210065 | 224501
12 | 49:53.27 | 3:36.55 | 224502 | 240756
13 | 53:30.07 | 5:54.08 | 240757 | 267314
14 | 59:24.15 | 3:32.10 | 267315 | 283224
15 | 62:56.25 | 13:45.47 | 283225 | 345146

Track 1

Filename C:\My Documents\My FLAC\The J.B.'s - Funky Good Time, The Anthology (2CD) (1995) [FLAC]\Disc 1\01 - Fred Wesley & The J.B.'s - Introduction To The J.B.'s, Doing It To Death.wav

Pre-gap length 0:00:02.00

Peak level 92.5 %
Extraction speed 3.3 X
Track quality 100.0 %
Test CRC B9E343EC
Copy CRC B9E343EC
Accurately ripped (confidence 12) [8619A52F] (AR v2)
Copy OK

Track 2

Filename C:\My Documents\My FLAC\The J.B.'s - Funky Good Time, The Anthology (2CD) (1995) [FLAC]\Disc 1\02 - The J.B.'s - The Grunt (Parts 1 & 2).wav

Peak level 87.4 %
Extraction speed 3.3 X
Track quality 100.0 %
Test CRC B793AD04
Copy CRC B793AD04
Accurately ripped (confidence 12) [1B28D10D] (AR v2)
Copy OK

Track 3

Filename C:\My Documents\My FLAC\The J.B.'s - Funky Good Time, The Anthology (2CD) (1995) [FLAC]\Disc 1\03 - The J.B.'s - My Brother (Parts 1 & 2).wav

Peak level 88.4 %
Extraction speed 3.9 X
Track quality 100.0 %
Test CRC 3C58BCDD
Copy CRC 3C58BCDD
Track not fully ripped for AccurateRip lookup
Copy OK

Track 4

Filename C:\My Documents\My FLAC\The J.B.'s - Funky Good Time, The Anthology (2CD) (1995) [FLAC]\Disc 1\04 - The J.B.'s - Pass The Peas.wav

Pre-gap length 0:00:01.73

Peak level 95.6 %
Extraction speed 3.6 X
Track quality 100.0 %
Test CRC BDEF66A5
Copy CRC BDEF66A5
Track not fully ripped for AccurateRip lookup
Copy OK

Track 5

Filename C:\My Documents\My FLAC\The J.B.'s - Funky Good Time, The Anthology (2CD) (1995) [FLAC]\Disc 1\05 - The J.B.'s - Gimme Some More.wav

Pre-gap length 0:00:01.48

Peak level 100.0 %
Extraction speed 3.2 X
Track quality 99.9 %
Test CRC 0F4FA7C1
Copy CRC 0F4FA7C1
Track not fully ripped for AccurateRip lookup
Copy OK

Track 6

Filename C:\My Documents\My FLAC\The J.B.'s - Funky Good Time, The Anthology (2CD) (1995) [FLAC]\Disc 1\06 - Fred Wesley & The J.B.'s - J.B. Shout.wav

Pre-gap length 0:00:02.17

Peak level 92.3 %
Extraction speed 3.9 X
Track quality 100.0 %
Test CRC A5842F1F
Copy CRC A5842F1F
Track not fully ripped for AccurateRip lookup
Copy OK

Track 7

Filename C:\My Documents\My FLAC\The J.B.'s - Funky Good Time, The Anthology (2CD) (1995) [FLAC]\Disc 1\07 - The J.B.'s - Blessed Blackness.wav

Pre-gap length 0:00:01.55

Peak level 91.1 %
Extraction speed 3.4 X
Track quality 99.9 %
Test CRC F1B5ACB2
Copy CRC F1B5ACB2
Track not fully ripped for AccurateRip lookup
Copy OK

Track 8

Filename C:\My Documents\My FLAC\The J.B.'s - Funky Good Time, The Anthology (2CD) (1995) [FLAC]\Disc 1\08 - The J.B.'s - Hot Pants Road.wav

Pre-gap length 0:00:02.73

Peak level 94.6 %
Extraction speed 4.1 X
Track quality 100.0 %
Test CRC D29CC316
Copy CRC D29CC316
Track not fully ripped for AccurateRip lookup
Copy OK

Track 9

Filename C:\My Documents\My FLAC\The J.B.'s - Funky Good Time, The Anthology (2CD) (1995) [FLAC]\Disc 1\09 - The J.B.'s - Givin' Up Food For Funk (Parts 1 & 2).wav

Pre-gap length 0:00:01.42

Peak level 100.0 %
Extraction speed 4.9 X
Track quality 100.0 %
Test CRC 288952A7
Copy CRC 288952A7
Track not fully ripped for AccurateRip lookup
Copy OK

Track 10

Filename C:\My Documents\My FLAC\The J.B.'s - Funky Good Time, The Anthology (2CD) (1995) [FLAC]\Disc 1\10 - The James Brown Soul Train - Honky Tonk (Part 1).wav

Pre-gap length 0:00:01.58

Peak level 99.2 %
Extraction speed 4.7 X
Track quality 100.0 %
Test CRC 579F45ED
Copy CRC 579F45ED
Track not fully ripped for AccurateRip lookup
Copy OK

Track 11

Filename C:\My Documents\My FLAC\The J.B.'s - Funky Good Time, The Anthology (2CD) (1995) [FLAC]\Disc 1\11 - Fred Wesley & The J.B.'s - Dirty Harri.wav

Pre-gap length 0:00:01.08

Peak level 92.1 %
Extraction speed 3.9 X
Track quality 99.9 %
Test CRC 6822F265
Copy CRC 6822F265
Track not fully ripped for AccurateRip lookup
Copy OK

Track 12

Filename C:\My Documents\My FLAC\The J.B.'s - Funky Good Time, The Anthology (2CD) (1995) [FLAC]\Disc 1\12 - Fred Wesley & The J.B.'s - Watermelon Man.wav

Pre-gap length 0:00:01.70

Peak level 93.1 %
Extraction speed 4.2 X
Track quality 99.9 %
Test CRC 46CFE9EC
Copy CRC 46CFE9EC
Track not fully ripped for AccurateRip lookup
Copy OK

Track 13

Filename C:\My Documents\My FLAC\The J.B.'s - Funky Good Time, The Anthology (2CD) (1995) [FLAC]\Disc 1\13 - Maceo And The Macks - Parrty (Parts 1 & 2).wav

Pre-gap length 0:00:01.72

Peak level 80.6 %
Extraction speed 0.9 X
Track quality 100.0 %
Test CRC 94E06306
Copy CRC 94E06306
Track not fully ripped for AccurateRip lookup
Copy OK

Track 14

Filename C:\My Documents\My FLAC\The J.B.'s - Funky Good Time, The Anthology (2CD) (1995) [FLAC]\Disc 1\14 - Fred Wesley & The J.B.'s - You Can Have Watergate Just Gimme Some Bucks And I'll Be Straight.wav

Pre-gap length 0:00:02.00

Peak level 100.0 %
Extraction speed 4.1 X
Track quality 99.9 %
Test CRC 3A9E38CD
Copy CRC 3A9E38CD
Track not fully ripped for AccurateRip lookup
Copy OK

Track 15

Filename C:\My Documents\My FLAC\The J.B.'s - Funky Good Time, The Anthology (2CD) (1995) [FLAC]\Disc 1\15 - Fred Wesley & The J.B.'s - More Peas.wav

Pre-gap length 0:00:01.23

Peak level 100.0 %
Extraction speed 6.0 X
Track quality 100.0 %
Test CRC 0755230B
Copy CRC 0755230B
Accurately ripped (confidence 11) [8380C3EB] (AR v2)
Copy OK

3 track(s) accurately ripped
12 track(s) not fully ripped for AccurateRip lookup

Some tracks could not be verified as accurate

No errors occurred

End of status report

==== Log checksum 0EE721024D547800B97801731EFFAAB7ED9633EBB380246D6F570561D6E467A5 ====

Exact Audio Copy V1.1 from 23. June 2015

EAC extraction logfile from 28. May 2016, 16:23

The J.B.'s / Funky Good Time: The Anthology (Disc 2)

Used drive : TEAC DVD-ROM DV-28SW Adapter: 1 ID: 0

Read mode : Secure
Utilize accurate stream : Yes
Defeat audio cache : Yes
Make use of C2 pointers : No

Read offset correction : 6
Overread into Lead-In and Lead-Out : No
Fill up missing offset samples with silence : Yes
Delete leading and trailing silent blocks : No
Null samples used in CRC calculations : Yes
Used interface : Native Win32 interface for Win NT & 2000
Gap handling : Left out

Used output format : Internal WAV Routines
Sample format : 44.100 Hz; 16 Bit; Stereo

TOC of the extracted CD

Track | Start | Length | Start sector | End sector
-----------------------------
1 | 0:00.00 | 4:00.03 | 0 | 18002
2 | 4:00.03 | 7:47.07 | 18003 | 53034
3 | 11:47.10 | 3:34.08 | 53035 | 69092
4 | 15:21.18 | 6:27.05 | 69093 | 98122
5 | 21:48.23 | 9:28.40 | 98123 | 140762
6 | 31:16.63 | 4:11.47 | 140763 | 159634
7 | 35:28.35 | 3:34.13 | 159635 | 175697
8 | 39:02.48 | 4:22.42 | 175698 | 195389
9 | 43:25.15 | 4:35.20 | 195390 | 216034
10 | 48:00.35 | 3:46.60 | 216035 | 233044
11 | 51:47.20 | 3:19.30 | 233045 | 247999
12 | 55:06.50 | 4:31.15 | 248000 | 268339
13 | 59:37.65 | 8:16.23 | 268340 | 305562
14 | 67:54.13 | 4:03.70 | 305563 | 323857
15 | 71:58.08 | 5:52.42 | 323858 | 350299

Track 1

Filename C:\My Documents\My FLAC\The J.B.'s - Funky Good Time, The Anthology (2CD) (1995) [FLAC]\Disc 2\01 - The J.B.'s - Gimme Some More (Very Live).wav

Pre-gap length 0:00:02.00

Peak level 97.7 %
Extraction speed 2.7 X
Track quality 100.0 %
Test CRC 3863B10E
Copy CRC 3863B10E
Track not fully ripped for AccurateRip lookup
Copy OK

Track 2

Filename C:\My Documents\My FLAC\The J.B.'s - Funky Good Time, The Anthology (2CD) (1995) [FLAC]\Disc 2\02 - Fred Wesley & The J.B.'s - Same Beat (Parts 1, 2 & 3).wav

Pre-gap length 0:00:03.38

Peak level 97.7 %
Extraction speed 3.4 X
Track quality 100.0 %
Test CRC A2C3C89D
Copy CRC A2C3C89D
Track not fully ripped for AccurateRip lookup
Copy OK

Track 3

Filename C:\My Documents\My FLAC\The J.B.'s - Funky Good Time, The Anthology (2CD) (1995) [FLAC]\Disc 2\03 - Fred Wesley & The J.B.'s - If You Don't Get It The First Time, Back Up And Try It Again, Party.wav

Pre-gap length 0:00:01.27

Peak level 99.2 %
Extraction speed 3.5 X
Track quality 100.0 %
Test CRC D77C50B2
Copy CRC D77C50B2
Track not fully ripped for AccurateRip lookup
Copy OK

Track 4

Filename C:\My Documents\My FLAC\The J.B.'s - Funky Good Time, The Anthology (2CD) (1995) [FLAC]\Disc 2\04 - Fred Wesley & The J.B.'s - Damn Right I Am Somebody.wav

Pre-gap length 0:00:01.43

Peak level 99.6 %
Extraction speed 3.5 X
Track quality 99.9 %
Test CRC 445D1736
Copy CRC 445D1736
Accurately ripped (confidence 10) [A959B33A] (AR v2)
Copy OK

Track 5

Filename C:\My Documents\My FLAC\The J.B.'s - Funky Good Time, The Anthology (2CD) (1995) [FLAC]\Disc 2\05 - Fred Wesley & The J.B.'s - I'm Payin' Taxes, What Am I Buyin'.wav

Peak level 78.3 %
Extraction speed 4.1 X
Track quality 99.9 %
Test CRC DFD64C0E
Copy CRC DFD64C0E
Track not fully ripped for AccurateRip lookup
Copy OK

Track 6

Filename C:\My Documents\My FLAC\The J.B.'s - Funky Good Time, The Anthology (2CD) (1995) [FLAC]\Disc 2\06 - Maceo And The Macks - Soul Power '74.wav

Pre-gap length 0:00:01.63

Peak level 82.4 %
Extraction speed 4.4 X
Track quality 100.0 %
Test CRC 15426329
Copy CRC 15426329
Track not fully ripped for AccurateRip lookup
Copy OK

Track 7

Filename C:\My Documents\My FLAC\The J.B.'s - Funky Good Time, The Anthology (2CD) (1995) [FLAC]\Disc 2\07 - The Last Word - Keep On Bumpin' Before You Give Out Of Gas.wav

Pre-gap length 0:00:01.37

Peak level 85.6 %
Extraction speed 4.5 X
Track quality 100.0 %
Test CRC 4DBC7BD8
Copy CRC 4DBC7BD8
Track not fully ripped for AccurateRip lookup
Copy OK

Track 8

Filename C:\My Documents\My FLAC\The J.B.'s - Funky Good Time, The Anthology (2CD) (1995) [FLAC]\Disc 2\08 - Fred & The New J.B.'s - Breakin' Bread.wav

Pre-gap length 0:00:01.58

Peak level 88.4 %
Extraction speed 4.1 X
Track quality 99.9 %
Test CRC 5088A901
Copy CRC 5088A901
Track not fully ripped for AccurateRip lookup
Copy OK

Track 9

Filename C:\My Documents\My FLAC\The J.B.'s - Funky Good Time, The Anthology (2CD) (1995) [FLAC]\Disc 2\09 - Fred & The New J.B.'s - Rockin' Funky Watergate.wav

Pre-gap length 0:00:02.45

Peak level 76.8 %
Extraction speed 5.0 X
Track quality 100.0 %
Test CRC 39D8D830
Copy CRC 39D8D830
Track not fully ripped for AccurateRip lookup
Copy OK

Track 10

Filename C:\My Documents\My FLAC\The J.B.'s - Funky Good Time, The Anthology (2CD) (1995) [FLAC]\Disc 2\10 - The First Family - Control (People Go Where We Send You) (Part 1).wav

Pre-gap length 0:00:01.47

Peak level 86.3 %
Extraction speed 5.0 X
Track quality 100.0 %
Test CRC 1461C977
Copy CRC 1461C977
Track not fully ripped for AccurateRip lookup
Copy OK

Track 11

Filename C:\My Documents\My FLAC\The J.B.'s - Funky Good Time, The Anthology (2CD) (1995) [FLAC]\Disc 2\11 - Maceo & The Macks - Cross The Track (We Better Go Back).wav

Pre-gap length 0:00:01.22

Peak level 86.9 %
Extraction speed 4.1 X
Track quality 99.9 %
Test CRC D7479D56
Copy CRC D7479D56
Track not fully ripped for AccurateRip lookup
Copy OK

Track 12

Filename C:\My Documents\My FLAC\The J.B.'s - Funky Good Time, The Anthology (2CD) (1995) [FLAC]\Disc 2\12 - The J.B.'s - All Aboard The Soul Funky Train.wav

Pre-gap length 0:00:01.17

Peak level 89.5 %
Extraction speed 5.3 X
Track quality 100.0 %
Test CRC DE99E53F
Copy CRC DE99E53F
Accurately ripped (confidence 8) [957881B7] (AR v2)
Copy OK

Track 13

Filename C:\My Documents\My FLAC\The J.B.'s - Funky Good Time, The Anthology (2CD) (1995) [FLAC]\Disc 2\13 - The J.B.'s - (It's Not The Express) It's The J.B.'s Monaurail.wav

Peak level 80.4 %
Extraction speed 5.9 X
Track quality 100.0 %
Test CRC AB1274A7
Copy CRC AB1274A7
Track not fully ripped for AccurateRip lookup
Copy OK

Track 14

Filename C:\My Documents\My FLAC\The J.B.'s - Funky Good Time, The Anthology (2CD) (1995) [FLAC]\Disc 2\14 - Maceo - Future Shock (Dance Your Pants Off).wav

Pre-gap length 0:00:01.63

Peak level 75.7 %
Extraction speed 5.6 X
Track quality 100.0 %
Test CRC 5989A621
Copy CRC 5989A621
Track not fully ripped for AccurateRip lookup
Copy OK

Track 15

Filename C:\My Documents\My FLAC\The J.B.'s - Funky Good Time, The Anthology (2CD) (1995) [FLAC]\Disc 2\15 - The J.B.'s with James Brown - Everybody Wanna Get Funky One More Time (Part 1).wav

Pre-gap length 0:00:01.25

Peak level 90.7 %
Extraction speed 5.3 X
Track quality 99.9 %
Test CRC 75067401
Copy CRC 75067401
Accurately ripped (confidence 8) [8790B905] (AR v2)
Copy OK

3 track(s) accurately ripped
12 track(s) not fully ripped for AccurateRip lookup

Some tracks could not be verified as accurate

No errors occurred

End of status report

==== Log checksum D797EFF65EAA4D5BFAD14CAEBEA8AAEB99B76D7CE8BD72FCBFDAF0AB939FC05D ====
Download link:



Links are Interchangeable - No Password - Single Extraction
Direct Download


Tags: Anthology

The J.B.'s - Funky Good Time: The Anthology (2CD) (1995) {James Brown} Fast Download via Rapidshare Hotfile Fileserve Filesonic Megaupload, The J.B.'s - Funky Good Time: The Anthology (2CD) (1995) {James Brown} Torrents and Emule Download or anything related.
Dear visitor, you went to website as unregistered user.
We encourage you to Register or Login to website under your name.
Information
Members of Guest cannot leave comments.