William Clarke - Blowin' Like Hell (1990)

Category: Music | Comment: 0

Download Now

http://ultraimg.com/images/JkeCFi1465275669508.jpg

William Clarke - Blowin' Like Hell (1990)
Blues | 1cd | EAC Rip | Flac + Cue + Log | covers
Alligator ALCD 4788 | rel: 1990 | 330Mb

The title says it all. William Clarke cooks on Blowin' Like Hell, his first CD. And these are new sounds. Songs like "Lollipop Mama," "Gambling for My Bread," and "Lonesome Bedroom Blues" (all written by Clarke) are just great tunes. "Must Be Jelly" won Clarke a W.C. Handy Award for blues song of the year in 1991.
You'll find yourself humming them. Clarke's timing and music are right on the money, with the great Alex Schultz on lead guitar. There is no doubt that Clarke is one of the few modern bluesmen who are exploring and extending the amplified blues harp tradition without violating any of its principles. No one plays chromatic blues harp with this kind of passion and sheer conviction. Hear for yourself. ~Allmusic

Track listing
01. Lollipop Mama (3:50)
02. Lonesome Bedroom Blues (5:44)
03. Gambling For My Bread (3:25)
04. Greasy Gravy (3:34)
05. Trying So Hard (3:37)
06. Cash Money (3:39)
07. Must Be Jelly (7:02)
08. Sweet Angel's Gone (4:44)
09. Looking To The Future (4:07)
10. Drinking By Myself (5:47)
11. Blowin' Like Hell (2:41)

eac log:



Exact Audio Copy V1.0 beta 4 from 7. December 2014

Отчёт EAC об извлечении, выполненном 29. марта 2015, 18:54

William Clarke / Blowin' Like Hell

Дисковод: SONY CD-RW CRX230ED Adapter: 1 ID: 0

Режим чтения : Достоверность
Использование точного потока : Да
Отключение кэша аудио : Да
Использование указателей C2 : Нет

Коррекция смещения при чтении : 6
Способность читать области Lead-in и Lead-out : Нет
Заполнение пропущенных сэмплов тишиной : Да
Удаление блоков с тишиной в начале и конце : Нет
При вычислениях CRC использовались нулевые сэмплы : Да
Интерфейс : Встроенный Win32-интерфейс для Win NT/2000

Выходной формат : Внутренние WAV-операции
Формат сэмплов : 44.100 Гц; 16 бит; стерео

TOC извлечённого CD

Трек | Старт | Длительность | Начальный сектор | Конечный сектор
-----------------------------------
1 | 0:00.00 | 3:50.32 | 0 | 17281
2 | 3:50.32 | 5:45.50 | 17282 | 43206
3 | 9:36.07 | 3:25.13 | 43207 | 58594
4 | 13:01.20 | 3:34.05 | 58595 | 74649
5 | 16:35.25 | 3:37.45 | 74650 | 90969
6 | 20:12.70 | 3:39.32 | 90970 | 107426
7 | 23:52.27 | 7:03.43 | 107427 | 139194
8 | 30:55.70 | 4:44.12 | 139195 | 160506
9 | 35:40.07 | 4:07.18 | 160507 | 179049
10 | 39:47.25 | 5:47.47 | 179050 | 205121
11 | 45:34.72 | 2:41.60 | 205122 | 217256

Характеристики диапазона извлечения и сообщения об ошибках

Выбранный диапазон

Имя файла F:\MusicCD\Torrent\William Clarke\William Clarke - Blowin' Like Hell\William Clarke - Blowin' Like Hell.wav

Пиковый уровень 100.0 %
Скорость извлечения 7.2 X
Качество диапазона 100.0 %
CRC теста 9E61ACFE
CRC копии 9E61ACFE
Копирование... OK

Ошибок не произошло


AccurateRip: сводка

Трек 1 : извлечено точно (доверие 3) [D8FF8435] (AR v2)
Трек 2 : извлечено точно (доверие 3) [1773096E] (AR v2)
Трек 3 : извлечено точно (доверие 3) [400E764C] (AR v2)
Трек 4 : извлечено точно (доверие 3) [095FE382] (AR v2)
Трек 5 : извлечено точно (доверие 3) [4EB9AF0D] (AR v2)
Трек 6 : извлечено точно (доверие 3) [79098AE6] (AR v2)
Трек 7 : извлечено точно (доверие 3) [D7C415A1] (AR v2)
Трек 8 : извлечено точно (доверие 3) [171E22AE] (AR v2)
Трек 9 : извлечено точно (доверие 3) [8C75E32D] (AR v2)
Трек 10 : извлечено точно (доверие 3) [1A903D09] (AR v2)
Трек 11 : извлечено точно (доверие 3) [667DC119] (AR v2)

Все треки извлечены точно

Конец отчёта

-- CUETools DB Plugin V2.1.4

[CTDB TOCID: K0cQL1WyLIDDeTQstShPv08NBiY-] found
Submit result: K0cQL1WyLIDDeTQstShPv08NBiY- has been confirmed
Track | CTDB Status
1 | (5/5) Accurately ripped
2 | (5/5) Accurately ripped
3 | (5/5) Accurately ripped
4 | (5/5) Accurately ripped
5 | (5/5) Accurately ripped
6 | (5/5) Accurately ripped
7 | (5/5) Accurately ripped
8 | (4/5) Accurately ripped
9 | (5/5) Accurately ripped
10 | (4/5) Accurately ripped
11 | (5/5) Accurately ripped

==== Контрольная сумма отчёта 68DB4FA9D79BD812C4012BB8DE6FBA93C3AC29E117D2FC72782AD61A1C5DBD97 ====



cuetools report:



[CUETools log; Date: 2016. 06. 06. 8:37:09; Version: 2.1.6]
[CTDB TOCID: K0cQL1WyLIDDeTQstShPv08NBiY-] found.
Track | CTDB Status
1 | (17/17) Accurately ripped
2 | (17/17) Accurately ripped
3 | (17/17) Accurately ripped
4 | (17/17) Accurately ripped
5 | (17/17) Accurately ripped
6 | (17/17) Accurately ripped
7 | (17/17) Accurately ripped
8 | (16/17) Accurately ripped
9 | (17/17) Accurately ripped
10 | (16/17) Accurately ripped
11 | (16/17) Accurately ripped
[AccurateRip ID: 0013bbce-00ac250a-a20b500b] found.
Track [ CRC | V2 ] Status
01 [8dbe2f82|d8ff8435] (02+04/27) Accurately ripped
02 [85d14dbe|1773096e] (02+04/28) Accurately ripped
03 [d843d427|400e764c] (02+04/28) Accurately ripped
04 [0b336621|095fe382] (02+04/28) Accurately ripped
05 [af434b15|4eb9af0d] (02+04/28) Accurately ripped
06 [e8a80c16|79098ae6] (02+04/28) Accurately ripped
07 [a80df5bb|d7c415a1] (02+04/28) Accurately ripped
08 [6eaf9beb|171e22ae] (02+04/28) Accurately ripped
09 [2d73c4ee|8c75e32d] (02+04/27) Accurately ripped
10 [f43048f1|1a903d09] (02+04/27) Accurately ripped
11 [23cce9ac|667dc119] (02+04/27) Accurately ripped
Offsetted by 102:
01 [dc504dbf] (13/27) Accurately ripped
02 [05596417] (14/28) Accurately ripped
03 7faca1c (14/28) Accurately ripped
04 [7cc40f9d] (14/28) Accurately ripped
05 [30dc25e7] (14/28) Accurately ripped
06 [9e1a016a] (14/28) Accurately ripped
07 [dab41a72] (14/28) Accurately ripped
08 [28fe921b] (14/28) Accurately ripped
09 [35d1357e] (13/27) Accurately ripped
10 [aedff49e] (13/27) Accurately ripped
11 [1b6a5b81] (13/27) Accurately ripped
Offsetted by 30:
01 [eaa17bcc] (00/27) No match (V2 was not tested)
02 [9c3d81aa] (00/28) No match (V2 was not tested)
03 [1fd1d5e9] (00/28) No match (V2 was not tested)
04 [cee57386] (00/28) No match (V2 was not tested)
05 [758733a2] (00/28) No match (V2 was not tested)
06 [28f80d52] (00/28) No match (V2 was not tested)
07 [c5faa635] (00/28) No match (V2 was not tested)
08 [875d6bdb] (00/28) No match (V2 was not tested)
09 [2fe99abe] (00/27) No match (V2 was not tested)
10 [8ed107d8] (00/27) No match (V2 was not tested)
11 [dabd6fa0] (00/27) No match (V2 was not tested)

Track Peak [ CRC32 ] [W/O NULL] [ LOG ]
- 100,0 [9E61ACFE] [28A17C14] CRC32
01 86,4 [91F46B48] [54FCA09B]
02 96,0 [21CFBB38] [4AF41C4F]
03 87,7 [0717E8F2] [9094E394]
04 97,7 [F5D63707] [6D52F284]
05 91,8 [8E743A1A] [A4F342A4]
06 97,7 [92584E3D] [9F8FC4DA]
07 97,7 [1488E5B0] [DC662F04]
08 95,7 [1369F5A3] [D502D3C9]
09 97,7 [58BC0A27] [9ADF9BB6]
10 91,5 [0E50FF35] 7594CA3
11 100,0 [5E0D2C26] [9DEBC636]







password: asd

Download link:



Links are Interchangeable - No Password - Single Extraction
Direct Download


Tags: William, Clarke, Blowin

William Clarke - Blowin' Like Hell (1990) Fast Download via Rapidshare Hotfile Fileserve Filesonic Megaupload, William Clarke - Blowin' Like Hell (1990) Torrents and Emule Download or anything related.
Dear visitor, you went to website as unregistered user.
We encourage you to Register or Login to website under your name.
Information
Members of Guest cannot leave comments.