Joe Rogan - Shiny Happy Jihad (2007)

Category: Music | Comment: 0

Download Now

http://ultraimg.com/images/GOgQZ1465364725774.jpg

Joe Rogan - Shiny Happy Jihad (2007)
EAC Rip | FLAC with CUE and log | scans | 410 mb
MP3 CBR 320kbps | RAR | 184 mb
Genre: comedy

Shiny Happy Jihad is the 2007 CD by comedian Joe Rogan. This is his second album, his first for the Comedy Central network. The CD was released on 10 April, 2007
01. Fear Factor
02. Pot, Jet Packs, And Peace In The Middle East (And Drunk People Yelling Shit On My CD)
03. 72 Virgins
04. Suicide Bombing, Sad Penis, And Big Party Girl
05. Jack Off First/Safe Zone
06. Bisexual Dudes Giving Advice
07. Gay Is Funny/Brokeback Mountain
08. Osama Is Right Out Of A Comic Book And The Terrorist Cell Phone Network
09. Boycotting And People Who Like Animals More Than People/March Of The Penguins
10. Weird Spots In The Middle
11. Big Dick Pills
12. Pussy Whipped/Best Friends
13. Dumb People Out-Breeding Smart People Explains The Pyramids
14. I Was Raised Catholic/In Search Of Noah's Ark
15. We're On A Rock Flying Through Space

BONUS Q&A
16. Wesley Snipes, The UFC, And Jim Brown
17. Fear Factor Is Cancelled, Telemundo, And Mike Goldberg
18. Eddie Bravo, Show Me Your Pussy, And Text Messaging
19. Lady And Her Son/Ex-Boyfriends Are Hungry Wolves

--

Produced by Joe Rogan, Jack Vaughn, and Jeff Sussman
Co-produced by Chandra Keyes

Recorded September 2006 at Cobb's Comedy Club, San Francisco
Recorded by Tony Brooke of Silentway.com
Mixed and edited by Christian Dwiggins, The Engine Room
Mastered by Christian Dwiggins, The Engine Room


http://ultraimg.com/images/JPtOy1465364726462.jpg


EAC Log


EAC extraction logfile from 14. April 2007, 9:46 for CD
Joe Rogan / Shiny Happy Jihad

Used drive : LITE-ON DVDRW SOHW-1633S Adapter: 0 ID: 0
Read mode : Secure with NO C2, accurate stream, disable cache
Read offset correction : 12
Overread into Lead-In and Lead-Out : No

Used output format : Internal WAV Routines
44.100 Hz; 16 Bit; Stereo

Other options :
Fill up missing offset samples with silence : Yes
Delete leading and trailing silent blocks : No
Installed external ASPI interface

Track 1
Filename D:\FLAC\Joe Rogan - Shiny Happy Jihad (2007) [FLAC]\01 - Fear Factor.wav

Pre-gap length 0:00:02.00

Peak level 98.8 %
Track quality 100.0 %
Test CRC F0C335A6
Copy CRC F0C335A6
Copy OK

Track 2
Filename D:\FLAC\Joe Rogan - Shiny Happy Jihad (2007) [FLAC]\02 - Pot, Jet Packs, And Peace In The Middle East.wav

Peak level 98.8 %
Track quality 100.0 %
Test CRC D42BB121
Copy CRC D42BB121
Copy OK

Track 3
Filename D:\FLAC\Joe Rogan - Shiny Happy Jihad (2007) [FLAC]\03 - 72 Virgins.wav

Peak level 98.8 %
Track quality 99.9 %
Test CRC BD494CFB
Copy CRC BD494CFB
Copy OK

Track 4
Filename D:\FLAC\Joe Rogan - Shiny Happy Jihad (2007) [FLAC]\04 - Suicide Bombing, Sad Penis, And Big Party Girl.wav

Peak level 98.8 %
Track quality 100.0 %
Test CRC D146FF3F
Copy CRC D146FF3F
Copy OK

Track 5
Filename D:\FLAC\Joe Rogan - Shiny Happy Jihad (2007) [FLAC]\05 - Jack Off First, Safe Zone.wav

Peak level 98.8 %
Track quality 100.0 %
Test CRC 300B826A
Copy CRC 300B826A
Copy OK

Track 6
Filename D:\FLAC\Joe Rogan - Shiny Happy Jihad (2007) [FLAC]\06 - Bisexual Dudes Giving Advice.wav

Peak level 98.8 %
Track quality 100.0 %
Test CRC 64077441
Copy CRC 64077441
Copy OK

Track 7
Filename D:\FLAC\Joe Rogan - Shiny Happy Jihad (2007) [FLAC]\07 - Gay Is Funny, Brokeback Mountain.wav

Peak level 98.8 %
Track quality 100.0 %
Test CRC F39F2711
Copy CRC F39F2711
Copy OK

Track 8
Filename D:\FLAC\Joe Rogan - Shiny Happy Jihad (2007) [FLAC]\08 - Osama Is Right Out Of A Comic Book And The Terrorist Cell Phone Network.wav

Peak level 98.8 %
Track quality 100.0 %
Test CRC D1A9E139
Copy CRC D1A9E139
Copy OK

Track 9
Filename D:\FLAC\Joe Rogan - Shiny Happy Jihad (2007) [FLAC]\09 - Boycotting And People Who Like Animals More Than People, March Of The Penguins.wav

Peak level 98.9 %
Track quality 100.0 %
Test CRC 4176FAC5
Copy CRC 4176FAC5
Copy OK

Track 10
Filename D:\FLAC\Joe Rogan - Shiny Happy Jihad (2007) [FLAC]\10 - Weird Spots In The Middle.wav

Peak level 98.8 %
Track quality 100.0 %
Test CRC C6423D18
Copy CRC C6423D18
Copy OK

Track 11
Filename D:\FLAC\Joe Rogan - Shiny Happy Jihad (2007) [FLAC]\11 - Big Dick Pills.wav

Peak level 98.8 %
Track quality 100.0 %
Test CRC 6BF61978
Copy CRC 6BF61978
Copy OK

Track 12
Filename D:\FLAC\Joe Rogan - Shiny Happy Jihad (2007) [FLAC]\12 - Pussy Whipped, Best Friends.wav

Peak level 98.8 %
Track quality 100.0 %
Test CRC 49CB7DD0
Copy CRC 49CB7DD0
Copy OK

Track 13
Filename D:\FLAC\Joe Rogan - Shiny Happy Jihad (2007) [FLAC]\13 - Dumb People Out-Breeding Smart People Explains The Pyramids.wav

Peak level 98.8 %
Track quality 100.0 %
Test CRC C24162A6
Copy CRC C24162A6
Copy OK

Track 14
Filename D:\FLAC\Joe Rogan - Shiny Happy Jihad (2007) [FLAC]\14 - I Was Raised Catholic, In Search Of Noah's Ark.wav

Peak level 98.8 %
Track quality 100.0 %
Test CRC 68BF81BC
Copy CRC 68BF81BC
Copy OK

Track 15
Filename D:\FLAC\Joe Rogan - Shiny Happy Jihad (2007) [FLAC]\15 - We're On A Rock Flying Through Space.wav

Peak level 98.9 %
Track quality 100.0 %
Test CRC 28628048
Copy CRC 28628048
Copy OK

Track 16
Filename D:\FLAC\Joe Rogan - Shiny Happy Jihad (2007) [FLAC]\16 - Wesley Snipes, The UFC, And Jim Brown.wav

Peak level 98.8 %
Track quality 99.9 %
Test CRC 627BDEDC
Copy CRC 627BDEDC
Copy OK

Track 17
Filename D:\FLAC\Joe Rogan - Shiny Happy Jihad (2007) [FLAC]\17 - Fear Factor Is Cancelled, Telemundo, And Mike Goldberg.wav

Peak level 98.8 %
Track quality 100.0 %
Test CRC 20A117CF
Copy CRC 20A117CF
Copy OK

Track 18
Filename D:\FLAC\Joe Rogan - Shiny Happy Jihad (2007) [FLAC]\18 - Eddie Bravo, Show Me Your Pussy, And Text Messaging.wav

Peak level 98.8 %
Track quality 100.0 %
Test CRC 87EF54F5
Copy CRC 87EF54F5
Copy OK

Track 19
Filename D:\FLAC\Joe Rogan - Shiny Happy Jihad (2007) [FLAC]\19 - Lady And Her Son, Ex-Boyfriends Are Hungry Wolves.wav

Peak level 98.8 %
Track quality 100.0 %
Test CRC 9281A16D
Copy CRC 9281A16D
Copy OK

No errors occured

End of status report
Download link:



Links are Interchangeable - No Password - Single Extraction
Direct Download

Joe Rogan - Shiny Happy Jihad (2007) Fast Download via Rapidshare Hotfile Fileserve Filesonic Megaupload, Joe Rogan - Shiny Happy Jihad (2007) Torrents and Emule Download or anything related.
Dear visitor, you went to website as unregistered user.
We encourage you to Register or Login to website under your name.
Information
Members of Guest cannot leave comments.