The Black Flames - s/t (1990)

Category: Music | Comment: 0

Download Now

http://ultraimg.com/images/EHe6eO51465452486196.jpg

The Black Flames - s/t (1990)
EAC Rip | FLAC with CUE and log | scans | 341 mb
MP3 CBR 320kbps | RAR | 149 mb
Genre: R&B, soul, hip-hop, rap

The Black Flames is the self-titled 1990 debut album by R&B trio The Black Flames. Signed to OBR/Def Jam, the album featured the hit songs "Watching You", "Dance With Me", and "Let Me Show You". After this album, no one knows what happened to them.
http://ultraimg.com/images/WdH0IE1465452486852.jpg

1. Watching You (4:41)
2. Dance With Me (4:45)
3. Let Me Show You (4:43)
4. Do Ya (3:58)
5. Let's Get (5:06)
6. Lies (4:25)
7. Public Domain (4:22)
8. Attitude (5:32)
9. Stay Around (5:01)
10. Fortune And Fame (Yah-Ya's Rap) (3:25)


http://ultraimg.com/images/it7e0hs1465452487477.jpg


EAC Log


Exact Audio Copy V1.1 from 23. June 2015

EAC extraction logfile from 31. May 2016, 9:36

The Black Flames / The Black Flames

Used drive : TEAC DVD-ROM DV-28SW Adapter: 1 ID: 0

Read mode : Secure
Utilize accurate stream : Yes
Defeat audio cache : Yes
Make use of C2 pointers : No

Read offset correction : 6
Overread into Lead-In and Lead-Out : No
Fill up missing offset samples with silence : Yes
Delete leading and trailing silent blocks : No
Null samples used in CRC calculations : Yes
Used interface : Native Win32 interface for Win NT & 2000
Gap handling : Left out

Used output format : Internal WAV Routines
Sample format : 44.100 Hz; 16 Bit; Stereo

TOC of the extracted CD

Track | Start | Length | Start sector | End sector
-----------------------------
1 | 0:00.00 | 4:42.55 | 0 | 21204
2 | 4:42.55 | 4:47.07 | 21205 | 42736
3 | 9:29.62 | 4:44.18 | 42737 | 64054
4 | 14:14.05 | 4:00.32 | 64055 | 82086
5 | 18:14.37 | 5:06.50 | 82087 | 105086
6 | 23:21.12 | 4:26.60 | 105087 | 125096
7 | 27:47.72 | 4:23.68 | 125097 | 144889
8 | 32:11.65 | 5:33.47 | 144890 | 169911
9 | 37:45.37 | 5:03.08 | 169912 | 192644
10 | 42:48.45 | 3:24.70 | 192645 | 208014

Track 1

Filename C:\My Documents\My FLAC\The Black Flames - s-t (1990) [FLAC}\01 - Watching You.wav

Pre-gap length 0:00:02.00

Peak level 99.5 %
Extraction speed 1.2 X
Track quality 100.0 %
Test CRC 8E826E44
Copy CRC 8E826E44
Track not fully ripped for AccurateRip lookup
Copy OK

Track 2

Filename C:\My Documents\My FLAC\The Black Flames - s-t (1990) [FLAC}\02 - Dance With Me.wav

Pre-gap length 0:00:01.45

Peak level 99.9 %
Extraction speed 1.4 X
Track quality 100.0 %
Test CRC ACDC3DBD
Copy CRC ACDC3DBD
Track not fully ripped for AccurateRip lookup
Copy OK

Track 3

Filename C:\My Documents\My FLAC\The Black Flames - s-t (1990) [FLAC}\03 - Let Me Show You.wav

Pre-gap length 0:00:02.02

Peak level 88.5 %
Extraction speed 1.5 X
Track quality 100.0 %
Test CRC B36E7208
Copy CRC B36E7208
Track not fully ripped for AccurateRip lookup
Copy OK

Track 4

Filename C:\My Documents\My FLAC\The Black Flames - s-t (1990) [FLAC}\04 - Do Ya.wav

Pre-gap length 0:00:01.20

Peak level 80.0 %
Extraction speed 1.6 X
Track quality 100.0 %
Test CRC 37B71BAA
Copy CRC 37B71BAA
Track not fully ripped for AccurateRip lookup
Copy OK

Track 5

Filename C:\My Documents\My FLAC\The Black Flames - s-t (1990) [FLAC}\05 - Let's Get Loose.wav

Pre-gap length 0:00:02.32

Peak level 91.9 %
Extraction speed 1.8 X
Track quality 100.0 %
Test CRC B9DD30DA
Copy CRC B9DD30DA
Track not fully ripped for AccurateRip lookup
Copy OK

Track 6

Filename C:\My Documents\My FLAC\The Black Flames - s-t (1990) [FLAC}\06 - Lies.wav

Pre-gap length 0:00:00.52

Peak level 99.1 %
Extraction speed 1.6 X
Track quality 99.9 %
Test CRC 0A2B492E
Copy CRC 0A2B492E
Track not fully ripped for AccurateRip lookup
Copy OK

Track 7

Filename C:\My Documents\My FLAC\The Black Flames - s-t (1990) [FLAC}\07 - Public Domain.wav

Pre-gap length 0:00:01.15

Peak level 100.0 %
Extraction speed 1.8 X
Track quality 100.0 %
Test CRC 5DB80F07
Copy CRC 5DB80F07
Track not fully ripped for AccurateRip lookup
Copy OK

Track 8

Filename C:\My Documents\My FLAC\The Black Flames - s-t (1990) [FLAC}\08 - Attitude.wav

Pre-gap length 0:00:01.35

Peak level 88.8 %
Extraction speed 2.1 X
Track quality 100.0 %
Test CRC CF0783F6
Copy CRC CF0783F6
Track not fully ripped for AccurateRip lookup
Copy OK

Track 9

Filename C:\My Documents\My FLAC\The Black Flames - s-t (1990) [FLAC}\09 - Stay Around.wav

Pre-gap length 0:00:01.57

Peak level 100.0 %
Extraction speed 2.0 X
Track quality 99.9 %
Test CRC B7FE3250
Copy CRC B7FE3250
Track not fully ripped for AccurateRip lookup
Copy OK

Track 10

Filename C:\My Documents\My FLAC\The Black Flames - s-t (1990) [FLAC}\10 - Fortune And Fame (Yah-Ya's Rap).wav

Pre-gap length 0:00:02.25

Peak level 99.8 %
Extraction speed 2.1 X
Track quality 100.0 %
Test CRC A08AA6EE
Copy CRC A08AA6EE
Accurately ripped (confidence 1) [0704F7D2] (AR v2)
Copy OK

1 track(s) accurately ripped
9 track(s) not fully ripped for AccurateRip lookup

Some tracks could not be verified as accurate

No errors occurred

End of status report

==== Log checksum 704C17EBA3C8B4BDFD33E2D04F8E7DE4EDE02A883B016A9D343908284CE1A798 ====
Download link:



Links are Interchangeable - No Password - Single Extraction
Direct Download


Tags: Flames

The Black Flames - s/t (1990) Fast Download via Rapidshare Hotfile Fileserve Filesonic Megaupload, The Black Flames - s/t (1990) Torrents and Emule Download or anything related.
Dear visitor, you went to website as unregistered user.
We encourage you to Register or Login to website under your name.
Information
Members of Guest cannot leave comments.