Heaven & Hell: Radio City Music Hall Live! (2007) [BDRip 1080p]

Category: Music | Comment: 0

Download Now

http://ultraimg.com/images/LItNnwm61465529461566.jpg

Heaven & Hell: Radio City Music Hall Live! (2007)
BDRip 1080p | MKV | 1920x1080 (16:9) at 29.970 fps, AVC ([email protected]) | 8.53 GB
Audio: 48 kHz, 16 bits, 6 channels, 2570 kbps/ 1509 kbps, DTS | Length: 01:55:00
Genre: Heavy metal | Nitroflare/Filefactory/Bigfile

"Radio City Music Hall - Live!" was filmed at the iconic New York venue on March 30, 2007. It was the first US concert by the Dio / Iommi / Butler/ Appice line-up for over 15 years and formed part of Heaven & Hell's 2007 world tour. It was the success of this tour that led to the continued existence of Heaven & Hell, a new studio album and further live dates, and ongoing plans that were only curtailed by the sad death of Ronnie James Dio. Filmed in high definition but originally released on DVD only by Rhino in North America, the show is now being released for the first time on Blu-ray by Eagle Vision with additional bonus material. - TRACK LISTING: 1) E5150 / After All 2) Mob Rules 3) Children Of The Sea 4) Lady Evil 5) I 6) Sign Of The Southern Cross 7) Voodoo 8) The Devil Cried / Vinny Drum Solo 9) Computer God 10) Falling Off The Edge Of the World 11) Shadow Of The Wind 12) Die Young 13) Heaven And Hell 14) Lonely Is The Word 15) Neon Knights - BONUS FEATURES: Road Movie / Hail The Gods Of Metal / Meet The Mob / Radio City / The Wisdom Of Dio


http://ultraimg.com/images/FHHVMnr9g1465529462916.jpg


http://ultraimg.com/images/vWyV5iI1465529464248.jpg


http://ultraimg.com/images/GzR8Txl1465529465615.jpg


http://ultraimg.com/images/ldeQA1465529467056.jpg


Tracklist
1. E5150/After All
2. The Mob Rules
3. Children Of The Sea
4. Lady Evil
5. I
6. The Sign Of The Southern Cross
7. Voodoo
8. The Devil Cried
9. Computer God
10. Falling Off The Edge Of The World
11. Shadow Of The Wind
12. Die Young
13. Heaven And Hell
14. Lonely Is The Word
15. Neon Knights

MediaInfo


General
Unique ID : 189696381042353456491183099847063806931 (0x8EB631ADDC0A7A8588AE18A82976A3D3)
Complete name : C:\Users\ggu\Desktop\ggu\Heaven & Hell-Radio City Music Hall Live! (2011)-alE13\Heaven & Hell-Radio City Music Hall Live! (2011)-alE13.mkv
Format : Matroska
Format version : Version 4 / Version 2
File size : 8.53 GiB
Duration : 1h 55mn
Overall bit rate : 10.6 Mbps
Movie name : Heaven and Hell-Radio City Music Hall Live! (2011)-alE13
Encoded date : UTC 2016-06-04 09:26:27
Writing application : mkvmerge v8.1.0 ('Psychedelic Postcard') 64bit
Writing library : libebml v1.3.1 + libmatroska v1.4.2

Video
ID : 1
Format : AVC
Format/Info : Advanced Video Codec
Format profile : [email protected]
Format settings, CABAC : Yes
Format settings, ReFrames : 2 frames
Codec ID : V_MPEG4/ISO/AVC
Duration : 1h 55mn
Bit rate : 7 893 Kbps
Width : 1 920 pixels
Height : 1 080 pixels
Display aspect ratio : 16:9
Frame rate mode : Constant
Frame rate : 29.970 (30000/1001) fps
Color space : YUV
Chroma subsampling : 4:2:0
Bit depth : 8 bits
Scan type : Progressive
Bits/(Pixel*Frame) : 0.127
Stream size : 6.37 GiB (75%)
Title : Heaven and Hell-Radio City Music Hall Live! (2011)-alE13
Writing library : x264 core 142
Encoding settings : cabac=1 / ref=1 / deblock=1:-1:-1 / analyse=0x3:0 / me=hex / subme=5 / psy=0 / mixed_ref=0 / me_range=16 / chroma_me=1 / trellis=0 / 8x8dct=1 / cqm=0 / deadzone=21,11 / fast_pskip=1 / chroma_qp_offset=0 / threads=4 / lookahead_threads=1 / sliced_threads=0 / nr=0 / decimate=1 / interlaced=0 / bluray_compat=0 / constrained_intra=0 / bframes=2 / b_pyramid=0 / b_adapt=1 / b_bias=0 / direct=1 / weightb=1 / open_gop=0 / weightp=0 / keyint=24 / keyint_min=13 / scenecut=40 / intra_refresh=0 / rc=2pass / mbtree=0 / bitrate=7893 / ratetol=1.0 / qcomp=0.60 / qpmin=0 / qpmax=69 / qpstep=4 / cplxblur=20.0 / qblur=0.5 / ip_ratio=1.40 / pb_ratio=1.30 / aq=1:1.00
Default : Yes
Forced : No
Color range : Limited
Color primaries : BT.709
Transfer characteristics : BT.709
Matrix coefficients : BT.709

Audio
ID : 2
Format : DTS
Format/Info : Digital Theater Systems
Format profile : MA / Core
Mode : 16
Format settings, Endianness : Big
Codec ID : A_DTS
Duration : 1h 55mn
Bit rate mode : Variable / Constant
Bit rate : 2 670 Kbps / 1 509 Kbps
Channel(s) : 6 channels
Channel positions : Front: L C R, Side: L R, LFE
Sampling rate : 48.0 KHz
Frame rate : 93.750 fps (512 spf)
Bit depth : 16 bits
Compression mode : Lossless / Lossy
Stream size : 2.15 GiB (25%)
Title : Heaven and Hell-Radio City Music Hall Live! (2011)-alE13
Language : English
Default : No
Forced : No

Thanks to the original uploader
Download link:

rapidgator_net:
3n936.H.H.R.C.M.H.L.2007.BDR.1080p.R.part01.rar.html
3n936.H.H.R.C.M.H.L.2007.BDR.1080p.R.part02.rar.html
3n936.H.H.R.C.M.H.L.2007.BDR.1080p.R.part03.rar.html
3n936.H.H.R.C.M.H.L.2007.BDR.1080p.R.part04.rar.html
3n936.H.H.R.C.M.H.L.2007.BDR.1080p.R.part05.rar.html
3n936.H.H.R.C.M.H.L.2007.BDR.1080p.R.part06.rar.html
3n936.H.H.R.C.M.H.L.2007.BDR.1080p.R.part07.rar.html
3n936.H.H.R.C.M.H.L.2007.BDR.1080p.R.part08.rar.html
3n936.H.H.R.C.M.H.L.2007.BDR.1080p.R.part09.rar.html
3n936.H.H.R.C.M.H.L.2007.BDR.1080p.R.part10.rar.html
3n936.H.H.R.C.M.H.L.2007.BDR.1080p.R.part11.rar.html
3n936.H.H.R.C.M.H.L.2007.BDR.1080p.R.part12.rar.html

nitroflare_com:
3n936.H.H.R.C.M.H.L.2007.BDR.1080p.R.part01.rar
3n936.H.H.R.C.M.H.L.2007.BDR.1080p.R.part02.rar
3n936.H.H.R.C.M.H.L.2007.BDR.1080p.R.part03.rar
3n936.H.H.R.C.M.H.L.2007.BDR.1080p.R.part04.rar
3n936.H.H.R.C.M.H.L.2007.BDR.1080p.R.part05.rar
3n936.H.H.R.C.M.H.L.2007.BDR.1080p.R.part06.rar
3n936.H.H.R.C.M.H.L.2007.BDR.1080p.R.part07.rar
3n936.H.H.R.C.M.H.L.2007.BDR.1080p.R.part08.rar
3n936.H.H.R.C.M.H.L.2007.BDR.1080p.R.part09.rar
3n936.H.H.R.C.M.H.L.2007.BDR.1080p.R.part10.rar
3n936.H.H.R.C.M.H.L.2007.BDR.1080p.R.part11.rar
3n936.H.H.R.C.M.H.L.2007.BDR.1080p.R.part12.rar

bigfile_to:
3n936.H.H.R.C.M.H.L.2007.BDR.1080p.R.part01.rar
3n936.H.H.R.C.M.H.L.2007.BDR.1080p.R.part02.rar
3n936.H.H.R.C.M.H.L.2007.BDR.1080p.R.part03.rar
3n936.H.H.R.C.M.H.L.2007.BDR.1080p.R.part04.rar
3n936.H.H.R.C.M.H.L.2007.BDR.1080p.R.part05.rar
3n936.H.H.R.C.M.H.L.2007.BDR.1080p.R.part06.rar
3n936.H.H.R.C.M.H.L.2007.BDR.1080p.R.part07.rar
3n936.H.H.R.C.M.H.L.2007.BDR.1080p.R.part08.rar
3n936.H.H.R.C.M.H.L.2007.BDR.1080p.R.part09.rar
3n936.H.H.R.C.M.H.L.2007.BDR.1080p.R.part10.rar
3n936.H.H.R.C.M.H.L.2007.BDR.1080p.R.part11.rar
3n936.H.H.R.C.M.H.L.2007.BDR.1080p.R.part12.rar


Links are Interchangeable - No Password - Single Extraction
Direct Download


Tags: Heaven

Heaven & Hell: Radio City Music Hall Live! (2007) [BDRip 1080p] Fast Download via Rapidshare Hotfile Fileserve Filesonic Megaupload, Heaven & Hell: Radio City Music Hall Live! (2007) [BDRip 1080p] Torrents and Emule Download or anything related.
Dear visitor, you went to website as unregistered user.
We encourage you to Register or Login to website under your name.
Information
Members of Guest cannot leave comments.