Snake Charmer - Smoke And Mirrors (1993)

Category: Music | Comment: 0

Download Now

http://ultraimg.com/images/Hb1zfizCo1465573446221.jpg

Snake Charmer - Smoke And Mirrors (1993)
EAC Rip | FLAC: Image+Cue+Log | 334 Mb | MP3 CBR 320 kbps | 135 Mb | Scans | Time: 43:20
Genre: Melodic Hard Rock, AOR | Label: Arctic Records | Cat.: ARCD 001

Snake Charmer is a swedish band formed by bassplayer Per Stadin (Silver Mountain) in 1991 with drummer Anders Johansson (Hammerfall, Yngwie Malmsteen), guitarist Jörg Fischer (Accept) and Pete Sandberg (Alien, Madison, Midnight Sun) on vocals the band was complete. After a while Jörg decided to continue with his own band, so they finally found Sven Cirnski as guitar replacement. The music goes in the AOR vein mixed with traditional Hard Rock and can be compaired with Bands like Alien, Madison and Co. Nice rockers and heartful ballads. The record ends with a very good version of Beatles' "Eleanor Rigby".



Track Listing

01. Worlds Apart (4:39)
02. Runnin' On Empty (3:51)
03. Middle Of Nowhere (4:37)
04. Heart On Hold (3:25)
05. Highway Of Love (5:22)
06. Teaser, Pleaser (4:08)
07. Like An Arrow (4:41)
08. Stone Cold (4:10)
09. Alone Without You (5:30)
10. Eleanor Rigby (The Beatles cover) (2:56)

Produced by Per Stadin

The Band

* Pete Sandberg (Alien, Bewarp, Pete Sandberg's Jade, Midnight Sun) - vocals
* Sven Cirnski (Bad Habit, Project L.E.E, Raise Cain) - guitars
* Per Stadin (Billionaires Boys Club, Dave Nerge's Bulldog, Geff) - bass, keyboards
* Anders Johansson (HammerFall, Silver Mountain, Yngwie Malmsteen, Planet Alliance, Doctor Weird, Aces High, Empire, Dave Nerge's Bulldog) - drums

* Sonny Larsson (Motherlode, XT) - backing vocals
* Jens Johansson (Yngwie Malmsteen, Dio, Stratovarius) - organ (''Heart On Hold'' and ''Highway Of Love'')
* Hal Johnston - hand claps ('Heart On Hold'')

EAC Log


Exact Audio Copy V1.0 beta 3 from 29. August 2011

EAC extraction logfile from 6. March 2012, 21:00

Snake Charmer / Smoke And Mirrors

Used drive : SlimtypeDVD A DS8A5SH Adapter: 0 ID: 1

Read mode : Secure
Utilize accurate stream : Yes
Defeat audio cache : Yes
Make use of C2 pointers : No

Read offset correction : 6
Overread into Lead-In and Lead-Out : No
Fill up missing offset samples with silence : Yes
Delete leading and trailing silent blocks : No
Null samples used in CRC calculations : Yes
Used interface : Native Win32 interface for Win NT & 2000

Used output format : User Defined Encoder
Selected bitrate : 320 kBit/s
Quality : High
Add ID3 tag : No
Command line compressor : C:\Program Files (x86)\Exact Audio Copy\Flac\flac.exe
Additional command line options : -V -8 -T "Date=%year%" -T "Genre=%genre%" %source%

TOC of the extracted CD

Track | Start | Length | Start sector | End sector
-----------------------------
1 | 0:00.37 | 4:39.10 | 37 | 20971
2 | 4:39.47 | 3:51.03 | 20972 | 38299
3 | 8:30.50 | 4:36.57 | 38300 | 59056
4 | 13:07.32 | 3:25.18 | 59057 | 74449
5 | 16:32.50 | 5:21.47 | 74450 | 98571
6 | 21:54.22 | 4:08.23 | 98572 | 117194
7 | 26:02.45 | 4:41.05 | 117195 | 138274
8 | 30:43.50 | 4:09.67 | 138275 | 157016
9 | 34:53.42 | 5:29.65 | 157017 | 181756
10 | 40:23.32 | 2:56.08 | 181757 | 194964

Range status and errors

Selected range

Filename D:\My Music\Snake Charmer - 1993 Smoke And Mirrors\Snake Charmer - Smoke And Mirrors.wav

Peak level 100.0 %
Extraction speed 2.7 X
Range quality 99.9 %
Test CRC 70F00DAF
Copy CRC 70F00DAF
Copy OK

No errors occurred


AccurateRip summary

Track 1 not present in database
Track 2 not present in database
Track 3 not present in database
Track 4 not present in database
Track 5 not present in database
Track 6 not present in database
Track 7 not present in database
Track 8 not present in database
Track 9 not present in database
Track 10 not present in database

None of the tracks are present in the AccurateRip database

End of status report

==== Log checksum 4CABAF47C2088CA89CBE4EA7113D9D3E1B81DDD110AD9A464ED7E87927019270 ====

Many thanks to the original uploader: kolushew

SEE also:
Download link:



Links are Interchangeable - No Password - Single Extraction
Direct Download


Tags: Charmer, Mirrors

Snake Charmer - Smoke And Mirrors (1993) Fast Download via Rapidshare Hotfile Fileserve Filesonic Megaupload, Snake Charmer - Smoke And Mirrors (1993) Torrents and Emule Download or anything related.
Dear visitor, you went to website as unregistered user.
We encourage you to Register or Login to website under your name.
Information
Members of Guest cannot leave comments.