Kalapana - s/t (1975) {2006 Japanese K2 HD pressing}

Category: Music | Comment: 0

Download Now

http://ultraimg.com/images/GaL90dUw1465573438546.jpg

Kalapana - s/t (1975) {2006 Japanese K2 HD pressing}
EAC Rip | FLAC with CUE and log | scans | 314 mb
MP3 CBR 320kbps | RAR | 140 mb
Genre: Hawaiian, pop, rock, country

Kalapana is the self-titled debut album by Hawaiian pop rock quartet Kalapana. In its day, it was one of the most popular records of Hawaii where every song received airplay on a regular basis. A few years later, some would call this type of music as "Yacht Rock". This is from a Japanese remaster released by Victor Entertainment/JVC on 18 February, 2006.
http://ultraimg.com/images/05rSb1465573441141.jpg

01. Going Going Gone
02. The Hurt
03. Nightbird
04. What Do I Do
05. To Be True
06. When The Morning Comes
07. Naturally
08. All I Want
09. Kona Daze
10. You Make It Hard
11. Everything Is Love
--
Malani Bilyeu-lead and background vocals, acoustic guitar, congas
Mackey Feary-lead and background vocals, acoustic guitar, acoustic piano
David John Pratt-electronic and acoustic guitars, congas, baclground vocals
Kirk Thompson-electronic and acoustic piano, clavinet, organ, background vocals

Assisted by
Larry Brown-drums, percussion and beard
Bill Perry-bass

Executive Producer-NFIB*
Arrangements: Barry Alan Fasman and Kalapana
Engineered and associate producer: Lewis Mark
Produced by Barry Alan Fasman for Kahuku Productions, Inc.

* "Not Figured In Budget" -E.H. Guy


http://ultraimg.com/images/1iKgSMun1465573443788.jpg


EAC Log


EAC extraction logfile from 27. July 2006, 14:13 for CD
Kalapana / Kalapana (Japanese K2 HD Pressing)

Used drive : LITE-ON DVDRW SOHW-1633S Adapter: 0 ID: 0
Read mode : Secure with NO C2, accurate stream, disable cache
Read offset correction : 12
Overread into Lead-In and Lead-Out : No

Used output format : Internal WAV Routines
44.100 Hz; 16 Bit; Stereo

Other options :
Fill up missing offset samples with silence : Yes
Delete leading and trailing silent blocks : No
Installed external ASPI interface

Track 1
Filename D:\FLAC\Kalapana - s-t (1975) [FLAC] (Japanese K2 HD pressing)\01 - Going Going Gone.wav

Pre-gap length 0:00:02.00

Peak level 97.9 %
Track quality 100.0 %
Test CRC 3E8B7734
Copy CRC 3E8B7734
Copy OK

Track 2
Filename D:\FLAC\Kalapana - s-t (1975) [FLAC] (Japanese K2 HD pressing)\02 - The Hurt.wav

Pre-gap length 0:00:03.48

Peak level 97.9 %
Track quality 100.0 %
Test CRC EAFEB706
Copy CRC EAFEB706
Copy OK

Track 3
Filename D:\FLAC\Kalapana - s-t (1975) [FLAC] (Japanese K2 HD pressing)\03 - Nightbird.wav

Pre-gap length 0:00:03.41

Peak level 97.9 %
Track quality 100.0 %
Test CRC E88A6935
Copy CRC E88A6935
Copy OK

Track 4
Filename D:\FLAC\Kalapana - s-t (1975) [FLAC] (Japanese K2 HD pressing)\04 - What Do I Do.wav

Pre-gap length 0:00:03.45

Peak level 97.9 %
Track quality 100.0 %
Test CRC 20C1C61B
Copy CRC 20C1C61B
Copy OK

Track 5
Filename D:\FLAC\Kalapana - s-t (1975) [FLAC] (Japanese K2 HD pressing)\05 - To Be True.wav

Pre-gap length 0:00:03.42

Peak level 99.9 %
Track quality 100.0 %
Test CRC 4BD1F35F
Copy CRC 4BD1F35F
Copy OK

Track 6
Filename D:\FLAC\Kalapana - s-t (1975) [FLAC] (Japanese K2 HD pressing)\06 - When The Morning Comes.wav

Pre-gap length 0:00:03.41

Peak level 97.9 %
Track quality 100.0 %
Test CRC 845737BB
Copy CRC 845737BB
Copy OK

Track 7
Filename D:\FLAC\Kalapana - s-t (1975) [FLAC] (Japanese K2 HD pressing)\07 - Naturally.wav

Pre-gap length 0:00:03.42

Peak level 97.9 %
Track quality 100.0 %
Test CRC 30412970
Copy CRC 30412970
Copy OK

Track 8
Filename D:\FLAC\Kalapana - s-t (1975) [FLAC] (Japanese K2 HD pressing)\08 - All I Want.wav

Pre-gap length 0:00:03.45

Peak level 97.9 %
Track quality 100.0 %
Test CRC 2A488A6A
Copy CRC 2A488A6A
Copy OK

Track 9
Filename D:\FLAC\Kalapana - s-t (1975) [FLAC] (Japanese K2 HD pressing)\09 - Kona Daze.wav

Pre-gap length 0:00:03.45

Peak level 97.9 %
Track quality 100.0 %
Test CRC 25E92B1A
Copy CRC 25E92B1A
Copy OK

Track 10
Filename D:\FLAC\Kalapana - s-t (1975) [FLAC] (Japanese K2 HD pressing)\10 - You Make It Hard.wav

Pre-gap length 0:00:03.41

Peak level 94.6 %
Track quality 100.0 %
Test CRC 4643CA8A
Copy CRC 4643CA8A
Copy OK

Track 11
Filename D:\FLAC\Kalapana - s-t (1975) [FLAC] (Japanese K2 HD pressing)\11 - Everything Is Love.wav

Pre-gap length 0:00:03.92

Peak level 97.9 %
Track quality 100.0 %
Test CRC 6BE8982B
Copy CRC 6BE8982B
Copy OK

No errors occured

End of status report
Download link:



Links are Interchangeable - No Password - Single Extraction
Direct Download


Tags: Kalapana, Japanese, pressing

Kalapana - s/t (1975) {2006 Japanese K2 HD pressing} Fast Download via Rapidshare Hotfile Fileserve Filesonic Megaupload, Kalapana - s/t (1975) {2006 Japanese K2 HD pressing} Torrents and Emule Download or anything related.
Dear visitor, you went to website as unregistered user.
We encourage you to Register or Login to website under your name.
Information
Members of Guest cannot leave comments.