VA - Fantabulous: Natural Funk Rarities From Early 70's (1999)

Category: Music | Comment: 0

Download Now

http://ultraimg.com/images/RD0Idcu1465860114988.jpg

VA - Fantabulous: Natural Funk Rarities From Early 70's (1999)
EAC Rip | FLAC with CUE and log | scans | 260 mb
MP3 CBR 320kbps | RAR | 110mb
Genre: soul, funk, jazz

Subtitled Natural Funk Rarities From Early 70's, Fantabulous is a French bootleg compilation of prime American soul and funk from the early 1970's, songs of which have been sampled by the likes of DJ Shadow, Cut Chemist, RJD2, and other fun loving Caucasian artists. All songs are sourced from original vinyl pressings.
This was taken from another music blog and has been made available here by special request. Thank you to the original uploader.


http://ultraimg.com/images/p4uM7yvN1465860118071.jpg

01. Bobby Marchan - Push The Button
02. Leonard King & The Soul Messengers - The Barracuda
03. Sisters And Brothers - The Jed Clampett (Part 1)
04. Mr. Percolator - I Got A Thing For You Baby (Part 1)
05. Bill Gibbs - Orbit In Space
06. Maurice McKinnies & The Soul Champions - Sock-Em-Funk' 69 (Part II)
07. The Singing Principal & The Brothers Of Soul Band - Woman's Lib
08. Mark III Trio - The Sleeper
09. Eddie Long - It Don't Make Sense But It Sure Sounds Good
10. Little Joe & The Latinaires - Funky Soul
11. Rhon Silva - Got To Have It
12. Mr. Percolator - I Got A Thing For You Baby (Part 2)
13. King Herbert - Natural Song
14. Ray Frazier & The Shades Of Madness - Gonna Get Your Love
15. Soul Vibrations - The Dump
16. Big Boe & The Night Hawks - My Thing
17. Marie "Queenie" Lyons - Try Me


http://ultraimg.com/images/gJMmO4t31465860120311.jpg


EAC Log


EAC extraction logfile from 3. August 2007, 4:59 for CD
Various / Fantabulous

Used drive : LITE-ON DVDRW SOHW-1633S Adapter: 0 ID: 0
Read mode : Secure with NO C2, accurate stream, disable cache
Read offset correction : 12
Overread into Lead-In and Lead-Out : No

Used output format : Internal WAV Routines
44.100 Hz; 16 Bit; Stereo

Other options :
Fill up missing offset samples with silence : Yes
Delete leading and trailing silent blocks : No
Installed external ASPI interface

Track 1
Filename D:\FLAC\VA - Fantabulous (1999) [FLAC]\01 - Push The Button.wav

Pre-gap length 0:00:02.42

Peak level 99.7 %
Track quality 100.0 %
Test CRC F70E3322
Copy CRC F70E3322
Copy OK

Track 2
Filename D:\FLAC\VA - Fantabulous (1999) [FLAC]\02 - The Barracuda.wav

Peak level 92.9 %
Track quality 100.0 %
Test CRC D5BA3E75
Copy CRC D5BA3E75
Copy OK

Track 3
Filename D:\FLAC\VA - Fantabulous (1999) [FLAC]\03 - The Jed Clampett (Part 1).wav

Peak level 77.0 %
Track quality 100.0 %
Test CRC 8B539540
Copy CRC 8B539540
Copy OK

Track 4
Filename D:\FLAC\VA - Fantabulous (1999) [FLAC]\04 - I Got A Thing For You Baby (Part 1).wav

Peak level 89.1 %
Track quality 100.0 %
Test CRC DF16BA7A
Copy CRC DF16BA7A
Copy OK

Track 5
Filename D:\FLAC\VA - Fantabulous (1999) [FLAC]\05 - Orbit In Space.wav

Peak level 100.0 %
Track quality 100.0 %
Test CRC 293BB2B6
Copy CRC 293BB2B6
Copy OK

Track 6
Filename D:\FLAC\VA - Fantabulous (1999) [FLAC]\06 - Sock-Em-Funk' 69 (Part II).wav

Peak level 100.0 %
Track quality 100.0 %
Test CRC 604D035C
Copy CRC 604D035C
Copy OK

Track 7
Filename D:\FLAC\VA - Fantabulous (1999) [FLAC]\07 - Woman's Lib.wav

Peak level 97.5 %
Track quality 100.0 %
Test CRC 57551DF9
Copy CRC 57551DF9
Copy OK

Track 8
Filename D:\FLAC\VA - Fantabulous (1999) [FLAC]\08 - The Sleeper.wav

Peak level 97.3 %
Track quality 100.0 %
Test CRC 1727619D
Copy CRC 1727619D
Copy OK

Track 9
Filename D:\FLAC\VA - Fantabulous (1999) [FLAC]\09 - It Don't Make Sense But It Sure Sounds Good.wav

Peak level 99.7 %
Track quality 100.0 %
Test CRC 9D440119
Copy CRC 9D440119
Copy OK

Track 10
Filename D:\FLAC\VA - Fantabulous (1999) [FLAC]\10 - Funky Soul.wav

Peak level 100.0 %
Track quality 100.0 %
Test CRC 0F00BC1E
Copy CRC 0F00BC1E
Copy OK

Track 11
Filename D:\FLAC\VA - Fantabulous (1999) [FLAC]\11 - Got To Have It.wav

Peak level 91.8 %
Track quality 100.0 %
Test CRC 7DE9BD13
Copy CRC 7DE9BD13
Copy OK

Track 12
Filename D:\FLAC\VA - Fantabulous (1999) [FLAC]\12 - I Got A Thing For You Baby (Part 2).wav

Peak level 99.8 %
Track quality 100.0 %
Test CRC AB81BDA4
Copy CRC AB81BDA4
Copy OK

Track 13
Filename D:\FLAC\VA - Fantabulous (1999) [FLAC]\13 - Natural Song.wav

Peak level 100.0 %
Track quality 100.0 %
Test CRC DE432DFC
Copy CRC DE432DFC
Copy OK

Track 14
Filename D:\FLAC\VA - Fantabulous (1999) [FLAC]\14 - Gonna Get Your Love.wav

Peak level 94.0 %
Track quality 100.0 %
Test CRC D031EF3F
Copy CRC D031EF3F
Copy OK

Track 15
Filename D:\FLAC\VA - Fantabulous (1999) [FLAC]\15 - The Dump.wav

Peak level 99.7 %
Track quality 100.0 %
Test CRC 3B11AFE4
Copy CRC 3B11AFE4
Copy OK

Track 16
Filename D:\FLAC\VA - Fantabulous (1999) [FLAC]\16 - My Thing.wav

Peak level 99.8 %
Track quality 99.9 %
Test CRC D0AB3D54
Copy CRC D0AB3D54
Copy OK

Track 17
Filename D:\FLAC\VA - Fantabulous (1999) [FLAC]\17 - Try Me.wav

Peak level 99.2 %
Track quality 100.0 %
Test CRC 9FB4F696
Copy CRC 9FB4F696
Copy OK

No errors occured

End of status report
Download link:



Links are Interchangeable - No Password - Single Extraction
Direct Download


Tags: Fantabulous, Natural, Rarities

VA - Fantabulous: Natural Funk Rarities From Early 70's (1999) Fast Download via Rapidshare Hotfile Fileserve Filesonic Megaupload, VA - Fantabulous: Natural Funk Rarities From Early 70's (1999) Torrents and Emule Download or anything related.
Dear visitor, you went to website as unregistered user.
We encourage you to Register or Login to website under your name.
Information
Members of Guest cannot leave comments.