David Guetta - Le Grand Show (2016) [HDTV, 1080i]

Category: Music | Comment: 0

Download Now

http://ultraimg.com/images/h00Z8H1465919836176.jpg

David Guetta - Le Grand Show (2016)
HDTV 1080i | TS | MPEG4 Video (H264) 1920x1080 25fps 10.7 Mbps | MPEG Audio 48000Hz stereo 192kbps
Electro House | Length: 01:03:43 | 5.12 GB

Pierre David Guetta , born 7 November 1967, is a French DJ, record producer and remixer. He co-founded Gum Productions with Lisa Dodgson and released his first album, Just a Little More Love, in 2002. Later, he released Guetta Blaster (2004) and Pop Life (2007).
Guetta achieved mainstream success with his 2009 album One Love which included the hit singles "When Love Takes Over", "Gettin' Over You", "Sexy Bitch", and "Memories", the first three of which reached number one in the United Kingdom. The 2011 follow-up album, Nothing but the Beat, continued this success, containing the hit singles "Where Them Girls At", "Little Bad Girl", "Without You", "Titanium" and "Turn Me On". He is among the first DJs to get into the EDM scene and is known as the "Grandfather of EDM".



http://ultraimg.com/images/0d8FhLeTA1465919838668.jpg


http://ultraimg.com/images/ab2TLJqua1465919840719.jpg


http://ultraimg.com/images/XU3KK1465919842786.jpg


http://ultraimg.com/images/cwbcT1465919846173.jpg


http://ultraimg.com/images/U0tcU1465919848163.jpg


http://ultraimg.com/images/P59nUvK31465919850678.jpg



Tracklist
01 David Guetta ft. Ne-Yo & Akon - Play Hard (Albert Neve Remix)
02 David Guetta & Glowinthedark vs. The White Stripes - Ain't A Seven Nation Army (Paolo Ortelli & Luke Degree Booty)
03 Kronic & Krunk! - Hey Ho
04 David Guetta vs. The Egg ft. Chris Willis - Love Don't Let Me Go (Walking Away)
w/ Jauz & Ephwurd - Rock The Party
05 David Guetta ft. Skylar Grey - Shot Me Down
06 David Guetta & Showtek ft. Vassy - BAD
07 David Guetta ft. Nicki Minaj & Afrojack - Hey Mama (Afrojack Remix)
w/ David Guetta ft. Nicki Minaj & Afrojack - Hey Mama
08 Silvio Ecomo & Chuckie - Moombah (Afrojack Remix)
w/ David Guetta ft. Kelly Rowland - When Love Takes Over
09 David Guetta ft. Sia - Titanium (Alesso Remix)
10 David Guetta ft. Sam Martin - Dangerous
11 David Guetta ft. Sam Martin - Dangerous (David Guetta Banging Remix)
12 The Weeknd - Can't Feel My Face (Martin Garrix Remix)
w/ David Guetta ft. Sia - Bang My Head (GLOWINTHEDARK Remix)
13 Rihanna ft. Mikky Ekko - Stay
w/ Sebastian Ingrosso & Tommy Trash - Reload
14 David Guetta ft. Zara Larsson - This One's For You (Official Song UEFA Euro 2016) (ID Remix)
15 Jack U vs. Black Eyes Peas - Where Are U Now vs. I Gotta Feeling (David Guetta Mashup)
16 David Guetta ft. Usher - Without You
17 David Guetta ft. Akon - Sexy Bitch

MediaInfo


General
ID : 1 (0x1)
Complete name : J:\UEFA.Euro.2016.Le.Grand.show.de.David.Guetta.1080i.HDTV.HDCLUB.ts
Format : MPEG-TS
File size : 5.12 GiB
Duration : 1h 3mn
Overall bit rate mode : Variable
Overall bit rate : 11.5 Mbps

Video
ID : 67 (0x43)
Menu ID : 1 (0x1)
Format : AVC
Format/Info : Advanced Video Codec
Format profile : [email protected]
Format settings, CABAC : Yes
Format settings, ReFrames : 4 frames
Format settings, GOP : M=4, N=28
Codec ID : 27
Duration : 1h 3mn
Bit rate : 10.7 Mbps
Width : 1 920 pixels
Height : 1 080 pixels
Display aspect ratio : 16:9
Frame rate : 25.000 fps
Standard : Component
Color space : YUV
Chroma subsampling : 4:2:0
Bit depth : 8 bits
Scan type : Interlaced
Scan order : Top Field First
Bits/(Pixel*Frame) : 0.207
Stream size : 4.78 GiB (93%)
Color range : Limited
Color primaries : BT.709
Transfer characteristics : BT.709
Matrix coefficients : BT.709

Audio
ID : 68 (0x44)
Menu ID : 1 (0x1)
Format : MPEG Audio
Format version : Version 1
Format profile : Layer 2
Codec ID : 3
Duration : 1h 3mn
Bit rate mode : Constant
Bit rate : 192 Kbps
Channel(s) : 2 channels
Sampling rate : 48.0 KHz
Compression mode : Lossy
Delay relative to video : -120ms
Stream size : 87.5 MiB (2%)
Language : Russian


Thanks to the original uploader
Download link:



Links are Interchangeable - No Password - Single Extraction
Direct Download


Tags: Guetta

David Guetta - Le Grand Show (2016) [HDTV, 1080i] Fast Download via Rapidshare Hotfile Fileserve Filesonic Megaupload, David Guetta - Le Grand Show (2016) [HDTV, 1080i] Torrents and Emule Download or anything related.
Dear visitor, you went to website as unregistered user.
We encourage you to Register or Login to website under your name.
Information
Members of Guest cannot leave comments.