Kraftwerk - The Model: Retrospective 1975-1978 (1992) {Cleopatra}

Category: Music | Comment: 0

Download Now

http://ultraimg.com/images/klkirL1466137395316.jpg

Kraftwerk - The Model: Retrospective 1975-1978 (1992) {Cleopatra}
EAC Rip | FLAC with CUE and log | scans | 344 mb
MP3 CBR 320kbps | RAR | 143 mb
Genre: electronic

The Model: Retrospective 1975-1978 is a 1992 compilation CD by German electronic group Kraftwerk. This highlights some of their more well known songs recorded and released between 1975 and 1978, a few of which were singles. This was released by Cleopatra Records.
http://ultraimg.com/images/FIviKXq1466137396846.jpg

1. Radioactivity (3:18)
2. Neon Lights (3:28)
3. Showroom Dummies (6:00)
4. The Hall Of Mirrors (7:50)
5. Antenna (3:05)
6. The Model (3:38)
7. Trans-Europe Express (3:53)
8. Metal On Metal (6:52)
9. The Robots (3:42)
10. Les Mannequins (6:02)
11. Europe Endless (9:35)


http://ultraimg.com/images/LMRJK1466137398868.jpg


EAC Log


Exact Audio Copy V1.1 from 23. June 2015

EAC extraction logfile from 7. June 2016, 11:03

Kraftwerk / The Model: Retrospective 1975-1978

Used drive : TEAC DVD-ROM DV-28SW Adapter: 1 ID: 0

Read mode : Secure
Utilize accurate stream : Yes
Defeat audio cache : Yes
Make use of C2 pointers : No

Read offset correction : 6
Overread into Lead-In and Lead-Out : No
Fill up missing offset samples with silence : Yes
Delete leading and trailing silent blocks : No
Null samples used in CRC calculations : Yes
Used interface : Native Win32 interface for Win NT & 2000
Gap handling : Left out

Used output format : Internal WAV Routines
Sample format : 44.100 Hz; 16 Bit; Stereo

TOC of the extracted CD

Track | Start | Length | Start sector | End sector
-----------------------------
1 | 0:00.32 | 3:19.48 | 32 | 15004
2 | 3:20.05 | 3:30.70 | 15005 | 30824
3 | 6:51.00 | 6:03.40 | 30825 | 58089
4 | 12:54.40 | 7:51.45 | 58090 | 93459
5 | 20:46.10 | 3:06.55 | 93460 | 107464
6 | 23:52.65 | 3:40.40 | 107465 | 124004
7 | 27:33.30 | 3:55.50 | 124005 | 141679
8 | 31:29.05 | 6:41.47 | 141680 | 171801
9 | 38:10.52 | 3:46.35 | 171802 | 188786
10 | 41:57.12 | 6:04.00 | 188787 | 216086
11 | 48:01.12 | 9:36.58 | 216087 | 259344

Track 1

Filename C:\My Documents\My FLAC\Kraftwerk - The Model, Retrospective 1975-1978 (1992) [FLAC] {Cleopatra}\01 - Radioactivity (Single Edit).wav

Pre-gap length 0:00:02.32

Peak level 98.5 %
Extraction speed 1.8 X
Track quality 100.0 %
Test CRC 29E42E70
Copy CRC 29E42E70
Track not fully ripped for AccurateRip lookup
Copy OK

Track 2

Filename C:\My Documents\My FLAC\Kraftwerk - The Model, Retrospective 1975-1978 (1992) [FLAC] {Cleopatra}\02 - Neon Lights (Single Edit).wav

Pre-gap length 0:00:00.68

Peak level 83.6 %
Extraction speed 2.0 X
Track quality 100.0 %
Test CRC A4E70E22
Copy CRC A4E70E22
Track not fully ripped for AccurateRip lookup
Copy OK

Track 3

Filename C:\My Documents\My FLAC\Kraftwerk - The Model, Retrospective 1975-1978 (1992) [FLAC] {Cleopatra}\03 - Showroom Dummies (Single Edit).wav

Pre-gap length 0:00:01.38

Peak level 74.3 %
Extraction speed 2.4 X
Track quality 100.0 %
Test CRC FECF074F
Copy CRC FECF074F
Track not fully ripped for AccurateRip lookup
Copy OK

Track 4

Filename C:\My Documents\My FLAC\Kraftwerk - The Model, Retrospective 1975-1978 (1992) [FLAC] {Cleopatra}\04 - The Hall Of Mirrors.wav

Pre-gap length 0:00:01.38

Peak level 94.1 %
Extraction speed 2.8 X
Track quality 100.0 %
Test CRC B09C8380
Copy CRC B09C8380
Track not fully ripped for AccurateRip lookup
Copy OK

Track 5

Filename C:\My Documents\My FLAC\Kraftwerk - The Model, Retrospective 1975-1978 (1992) [FLAC] {Cleopatra}\05 - Antenna (Single Edit).wav

Pre-gap length 0:00:01.03

Peak level 91.1 %
Extraction speed 2.7 X
Track quality 100.0 %
Test CRC 5176965D
Copy CRC 5176965D
Track not fully ripped for AccurateRip lookup
Copy OK

Track 6

Filename C:\My Documents\My FLAC\Kraftwerk - The Model, Retrospective 1975-1978 (1992) [FLAC] {Cleopatra}\06 - The Model.wav

Pre-gap length 0:00:01.25

Peak level 77.1 %
Extraction speed 2.9 X
Track quality 100.0 %
Test CRC 2B80954B
Copy CRC 2B80954B
Track not fully ripped for AccurateRip lookup
Copy OK

Track 7

Filename C:\My Documents\My FLAC\Kraftwerk - The Model, Retrospective 1975-1978 (1992) [FLAC] {Cleopatra}\07 - Trans-Europe Express (Single Edit).wav

Pre-gap length 0:00:01.15

Peak level 76.2 %
Extraction speed 3.1 X
Track quality 100.0 %
Test CRC DC30BE42
Copy CRC DC30BE42
Track not fully ripped for AccurateRip lookup
Copy OK

Track 8

Filename C:\My Documents\My FLAC\Kraftwerk - The Model, Retrospective 1975-1978 (1992) [FLAC] {Cleopatra}\08 - Metal On Metal.wav

Pre-gap length 0:00:01.35

Peak level 93.7 %
Extraction speed 3.5 X
Track quality 100.0 %
Test CRC CDDF4EDD
Copy CRC CDDF4EDD
Track not fully ripped for AccurateRip lookup
Copy OK

Track 9

Filename C:\My Documents\My FLAC\Kraftwerk - The Model, Retrospective 1975-1978 (1992) [FLAC] {Cleopatra}\09 - The Robots (Single Edit).wav

Pre-gap length 0:00:01.15

Peak level 91.2 %
Extraction speed 0.5 X
Track quality 99.9 %
Test CRC 3F9A3711
Copy CRC 3F9A3711
Track not fully ripped for AccurateRip lookup
Copy OK

Track 10

Filename C:\My Documents\My FLAC\Kraftwerk - The Model, Retrospective 1975-1978 (1992) [FLAC] {Cleopatra}\10 - Les Mannequins.wav

Pre-gap length 0:00:00.55

Peak level 76.8 %
Extraction speed 3.7 X
Track quality 100.0 %
Test CRC F7DF7A51
Copy CRC F7DF7A51
Track not fully ripped for AccurateRip lookup
Copy OK

Track 11

Filename C:\My Documents\My FLAC\Kraftwerk - The Model, Retrospective 1975-1978 (1992) [FLAC] {Cleopatra}\11 - Europe Endless.wav

Pre-gap length 0:00:01.45

Peak level 100.0 %
Extraction speed 4.1 X
Track quality 100.0 %
Test CRC 35F78801
Copy CRC 35F78801
Accurately ripped (confidence 14) [D37839D3] (AR v2)
Copy OK

1 track(s) accurately ripped
10 track(s) not fully ripped for AccurateRip lookup

Some tracks could not be verified as accurate

No errors occurred

End of status report

==== Log checksum 2D56E68C4667219E93DD6F31DE748F67BE841EAF9BB4BB57A863D787EDCAEE82 ====



http://ultraimg.com/images/B1NAMNf1466137401005.jpg

Download link:



Links are Interchangeable - No Password - Single Extraction
Direct Download


Tags: Kraftwerk, Retrospective, Cleopatra

Kraftwerk - The Model: Retrospective 1975-1978 (1992) {Cleopatra} Fast Download via Rapidshare Hotfile Fileserve Filesonic Megaupload, Kraftwerk - The Model: Retrospective 1975-1978 (1992) {Cleopatra} Torrents and Emule Download or anything related.
Dear visitor, you went to website as unregistered user.
We encourage you to Register or Login to website under your name.
Information
Members of Guest cannot leave comments.