Spice Girls - Viva Forever (UK CD5's #1 and #2)

Category: Music | Comment: 0

Download Now

http://ultraimg.com/images/mYUb50y1466581829630.jpg

Spice Girls - Viva Forever (UK CD5's #1 and #2)
EAC Rip | FLAC with CUE and log | scans | 270 mb
MP3 CBR 320kbps | RAR | 86 mb
Genre: pop, dance

Viva Forever is the 1998 single by British quintet The Spice Girls. This is the fourth single from their second album Spiceworld and is the last single to feature Geri Halliwell before leaving the group.
This involves the two different CD5's released in the UK.

The FLAC lossless version features an "extras" file that represents the enhanced portion of the first CD5. These extras are not included in the MP3 version.


http://ultraimg.com/images/ynj0x1466581831834.jpg

Viva Forever (UK CD5 #1)

http://ultraimg.com/images/gJtgsL1466581833851.jpg

1. Viva Forever
2. Viva Forever (Tony Rich Remix)
3. Viva Forever (Tony Rich Instrumental)


http://ultraimg.com/images/HaSI0a1466581836022.jpg


====


http://ultraimg.com/images/wRHacvDq31466581838462.jpg

Viva Forever (UK CD5 #2)

http://ultraimg.com/images/hAJhz1466581841103.jpg

1. Viva Forever
2. Who Do You Think You Are (Live)
3. Say You'll Be There (Live)

Produced by Richard Stannard and Matt Rowe
Mixed by Mark "Spike" Stent
Assistant mixer: Paul "P Dub" Walton


http://ultraimg.com/images/flqCWlviw1466581844073.jpg


SPICE GIRLS
Melanie Brown ("Scary Spice")
Melanie Chisholm ("Sporty Spice")
Emma Bunton ("Baby Spice")
Geri Halliwell ("Ginger Spice")
Victoria Adams ("Posh Spice")

EAC Log (both discs)


Exact Audio Copy V1.1 from 23. June 2015

EAC extraction logfile from 12. June 2016, 21:37

Spice Girls / Viva Forever (UK CD5 #1 of 2)

Used drive : TEAC DVD-ROM DV-28SW Adapter: 1 ID: 0

Read mode : Secure
Utilize accurate stream : Yes
Defeat audio cache : Yes
Make use of C2 pointers : No

Read offset correction : 6
Overread into Lead-In and Lead-Out : No
Fill up missing offset samples with silence : Yes
Delete leading and trailing silent blocks : No
Null samples used in CRC calculations : Yes
Used interface : Native Win32 interface for Win NT & 2000
Gap handling : Left out

Used output format : Internal WAV Routines
Sample format : 44.100 Hz; 16 Bit; Stereo

TOC of the extracted CD

Track | Start | Length | Start sector | End sector
-----------------------------
1 | 0:00.00 | 4:14.22 | 0 | 19071
2 | 4:14.22 | 5:21.30 | 19072 | 43176
3 | 9:35.52 | 5:42.55 | 43177 | 68881
4 | 17:50.32 | 10:01.44 | 80282 | 125400

Track 1

Filename C:\My Documents\My FLAC\Spice Girls - Viva Forever (CD singles) [FLAC]\Spice Girls - Viva Forever (UK CD5 #1 of 2) (1998) [FLAC]\01 - Viva Forever.wav

Pre-gap length 0:00:02.00

Peak level 97.9 %
Extraction speed 2.9 X
Track quality 100.0 %
Test CRC 7B71CB43
Copy CRC 7B71CB43
Track not fully ripped for AccurateRip lookup
Copy OK

Track 2

Filename C:\My Documents\My FLAC\Spice Girls - Viva Forever (CD singles) [FLAC]\Spice Girls - Viva Forever (UK CD5 #1 of 2) (1998) [FLAC]\02 - Viva Forever (Tony Rich Remix).wav

Pre-gap length 0:00:01.30

Peak level 97.9 %
Extraction speed 3.4 X
Track quality 100.0 %
Test CRC 161C00C6
Copy CRC 161C00C6
Track not fully ripped for AccurateRip lookup
Copy OK

Track 3

Filename C:\My Documents\My FLAC\Spice Girls - Viva Forever (CD singles) [FLAC]\Spice Girls - Viva Forever (UK CD5 #1 of 2) (1998) [FLAC]\03 - Viva Forever (Tony Rich Instrumental).wav

Pre-gap length 0:00:01.22

Peak level 97.9 %
Extraction speed 3.8 X
Track quality 100.0 %
Test CRC 60879C10
Copy CRC 60879C10
Track not present in AccurateRip database
Copy OK

1 track(s) not present in the AccurateRip database
2 track(s) not fully ripped for AccurateRip lookup

No tracks could be verified as accurate

No errors occurred

End of status report

==== Log checksum B3FBB1BD9F08ABC1FA4A3136391F7DE55F87E054E8D64F11C39F0CD616EBF065 ====

Exact Audio Copy V1.1 from 23. June 2015

EAC extraction logfile from 12. June 2016, 22:01

Spice Girls / Viva Forever (UK CD5 #2 of 2)

Used drive : TEAC DVD-ROM DV-28SW Adapter: 1 ID: 0

Read mode : Secure
Utilize accurate stream : Yes
Defeat audio cache : Yes
Make use of C2 pointers : No

Read offset correction : 6
Overread into Lead-In and Lead-Out : No
Fill up missing offset samples with silence : Yes
Delete leading and trailing silent blocks : No
Null samples used in CRC calculations : Yes
Used interface : Native Win32 interface for Win NT & 2000
Gap handling : Left out

Used output format : Internal WAV Routines
Sample format : 44.100 Hz; 16 Bit; Stereo

TOC of the extracted CD

Track | Start | Length | Start sector | End sector
-----------------------------
1 | 0:00.00 | 4:14.25 | 0 | 19074
2 | 4:14.25 | 4:22.22 | 19075 | 38746
3 | 8:36.47 | 4:26.00 | 38747 | 58696

Track 1

Filename C:\My Documents\My FLAC\Spice Girls - Viva Forever (CD singles) [FLAC]\Spice Girls - Viva Forever (UK CD5 #2 of 2) (1998) [FLAC]\01 - Viva Forever.wav

Pre-gap length 0:00:02.00

Peak level 97.9 %
Extraction speed 2.9 X
Track quality 100.0 %
Test CRC 7A413ECD
Copy CRC 7A413ECD
Track not fully ripped for AccurateRip lookup
Copy OK

Track 2

Filename C:\My Documents\My FLAC\Spice Girls - Viva Forever (CD singles) [FLAC]\Spice Girls - Viva Forever (UK CD5 #2 of 2) (1998) [FLAC]\02 - Who Do You Think You Are (Live).wav

Pre-gap length 0:00:01.73

Peak level 97.9 %
Extraction speed 2.8 X
Track quality 99.9 %
Test CRC C5D26CB0
Copy CRC C5D26CB0
Track not present in AccurateRip database
Copy OK

Track 3

Filename C:\My Documents\My FLAC\Spice Girls - Viva Forever (CD singles) [FLAC]\Spice Girls - Viva Forever (UK CD5 #2 of 2) (1998) [FLAC]\03 - Say You'll Be There (Live).wav

Peak level 97.9 %
Extraction speed 3.6 X
Track quality 100.0 %
Test CRC CAB750E3
Copy CRC CAB750E3
Track not present in AccurateRip database
Copy OK

2 track(s) not present in the AccurateRip database
1 track(s) not fully ripped for AccurateRip lookup

No tracks could be verified as accurate

No errors occurred

End of status report

==== Log checksum 65C5752B4F76B528798197B785B17C1260A4613A357D7364C824E0DF64703C93 ====



http://ultraimg.com/images/GG9O1DPG1466581846404.jpg

Download link:



Links are Interchangeable - No Password - Single Extraction
Direct Download


Tags: Forever

Spice Girls - Viva Forever (UK CD5's #1 and #2) Fast Download via Rapidshare Hotfile Fileserve Filesonic Megaupload, Spice Girls - Viva Forever (UK CD5's #1 and #2) Torrents and Emule Download or anything related.
Dear visitor, you went to website as unregistered user.
We encourage you to Register or Login to website under your name.
Information
Members of Guest cannot leave comments.