Colonel Abrams - Colonel Abrams (1985) [2010, Remastered & Expanded Edition]

Category: Music | Comment: 0

Download Now

http://ultraimg.com/images/2016/06/23/z42DT1ch1466681474379.jpg

Colonel Abrams - Colonel Abrams (1985) [2010, Remastered & Expanded Edition]
R&B, Dance, Electronic | EAC Rip | FLAC, Tracks+CUE+LOG+Scans-600dpi (PNG) | 75:31 Min | 695,22 Mb
Label: PTG Records (Netherlands) | Released: 2010, July, 19

Colonel Abrams is the self-titled debut album of Colonel Abrams, released in 1985. This album consists of garage house-influenced urban contemporary songs with lyrics and vocal performances provided by Abrams. Includes four Hot R&B singles chart hits: "The Truth," "Over and Over," "Trapped," and "I'm Not Gonna Let You" and the minor R&B chart hit "Table for Two." In addition, all the cuts of the album reached the top of the Hot Dance Singles chart.

http://ultraimg.com/images/2016/06/23/6dO6m3QgR1466681476654.jpg


http://ultraimg.com/images/2016/06/23/3ByU7ZD21466681479254.jpg


Release of the album: 1985, October, 13 [LP MCA Records, Cat.# 252 705-1, USA]
Release of this CD: 2010, July, 19 [CD PTG Records (Netherlands), Cat.# PTG 34088 / UPC: 8717438196886]
© & ℗ 1985 MCA Records.
Note: Remastered with 5 Bonus Tracks
Marketed by PTG Records
Made in the E.C.


Art Direction - Jeff Adamoff
Coordinator [Album Coordination] - Ross Fitzsimons
Design [Reissue Design] - Ray Heinsius
Executive Producer - Steven Machat
Mastered By - Steve Hall
Other [Clothes & Location] - Gianni Versace
Other [Makeup] - Audrey Maxwell
Photography By - Chris Duffy
Producer, Written-By - Colonel Abrams
Reissue Producer - Martijn Van Jole


Tracklist:

01. The Truth (04:43)
(Colonel Abrams, Marston Freeman)
02. Speculation (05:02)
(Colonel Abrams, Marston Freeman)
03. Never Change (05:47)
(Colonel Abrams, Sam Dees)
04. Picture Me In Love With You (04:30)
(Colonel Abrams, Marston Freeman)
05. Trapped (03:40)
(Colonel Abrams, Marston Freeman)
06. I'm Not Gonna Let (04:54)
(Colonel Abrams, Marston Freeman)
07. Over And Over (04:21)
(Colonel Abrams, Marston Freeman)
08. Margaux (05:47)
(Colonel Abrams, Marston Freeman)
09. Table For Two (02:41)
(Colonel Abrams, Marston Freeman)

Bonus Tracks:

10. Trapped (12" Vocal - Regisford Mix) (06:30)
(Colonel Abrams, Marston Freeman)
11. I'm Not Gonna Let You (12" Extended Version) (06:47)
(Colonel Abrams, Marston Freeman)
12. The Truth (12" A Side Silas Mix) (07:48)
(Colonel Abrams, Marston Freeman)
13. Over And Over (12" Vocal Mix) (06:22)
(Colonel Abrams, Marston Freeman)
14. Music Is The Answer (06:40)
(Colonel Abrams, Marston Freeman, Winston Jones)

EAC log


Exact Audio Copy V0.99 prebeta 5 from 4. May 2009

EAC extraction logfile from 20. October 2010, 1:54

Colonel Abrams / Colonel Abrams

Used drive : Optiarc DVD RW AD-7590S Adapter: 2 ID: 0

Read mode : Secure
Utilize accurate stream : Yes
Defeat audio cache : Yes
Make use of C2 pointers : No

Read offset correction : 48
Overread into Lead-In and Lead-Out : No
Fill up missing offset samples with silence : Yes
Delete leading and trailing silent blocks : No
Null samples used in CRC calculations : Yes
Used interface : Native Win32 interface for Win NT & 2000
Gap handling : Appended to previous track

Used output format : User Defined Encoder
Selected bitrate : 768 kBit/s
Quality : High
Add ID3 tag : No
Command line compressor : C:\Program Files\Exact Audio Copy\Flac\flac.exe
Additional command line options : -8 -V -T "ARTIST=%a" -T "TITLE=%t" -T "ALBUM=%g" -T "DATE=%y" -T "TRACKNUMBER=%n" -T "TOTALTRACKS=%x" -T "GENRE=%m" -T "ALBUMARTIST=%v" -T "ALBUM ARTIST=%v" -T "COMMENT=EAC Secure Mode, Test & Copy, AccurateRip, FLAC -8" %s

TOC of the extracted CD

Track | Start | Length | Start sector | End sector
-----------------------------
1 | 0:00.00 | 4:42.66 | 0 | 21215
2 | 4:42.66 | 5:01.40 | 21216 | 43830
3 | 9:44.31 | 5:46.60 | 43831 | 69840
4 | 15:31.16 | 4:30.13 | 69841 | 90103
5 | 20:01.29 | 3:40.17 | 90104 | 106620
6 | 23:41.46 | 4:53.65 | 106621 | 128660
7 | 28:35.36 | 4:21.01 | 128661 | 148236
8 | 32:56.37 | 5:47.09 | 148237 | 174270
9 | 38:43.46 | 2:41.27 | 174271 | 186372
10 | 41:24.73 | 6:29.40 | 186373 | 215587
11 | 47:54.38 | 6:47.05 | 215588 | 246117
12 | 54:41.43 | 7:47.57 | 246118 | 281199
13 | 62:29.25 | 6:21.59 | 281200 | 309833
14 | 68:51.09 | 6:40.14 | 309834 | 339847

Track 1

Filename C:\Addis Gugsa why killing HDD\01 - The Truth.wav

Pre-gap length 0:00:02.00

Peak level 99.9 %
Track quality 100.0 %
Test CRC E78F4ADB
Copy CRC E78F4ADB
Track not present in AccurateRip database
Copy OK

Track 2

Filename C:\Addis Gugsa why killing HDD\02 - Speculation.wav

Peak level 99.9 %
Track quality 100.0 %
Test CRC 602D2033
Copy CRC 602D2033
Track not present in AccurateRip database
Copy OK

Track 3

Filename C:\Addis Gugsa why killing HDD\03 - Never Change.wav

Peak level 99.9 %
Track quality 100.0 %
Test CRC 4A962214
Copy CRC 4A962214
Track not present in AccurateRip database
Copy OK

Track 4

Filename C:\Addis Gugsa why killing HDD\04 - Picture Me In Love With You.wav

Peak level 99.9 %
Track quality 100.0 %
Test CRC 77C57468
Copy CRC 77C57468
Track not present in AccurateRip database
Copy OK

Track 5

Filename C:\Addis Gugsa why killing HDD\05 - Trapped.wav

Peak level 99.9 %
Track quality 100.0 %
Test CRC 09E53F86
Copy CRC 09E53F86
Track not present in AccurateRip database
Copy OK

Track 6

Filename C:\Addis Gugsa why killing HDD\06 - I'm Gonna Let.wav

Peak level 99.9 %
Track quality 99.9 %
Test CRC 27F961D8
Copy CRC 27F961D8
Track not present in AccurateRip database
Copy OK

Track 7

Filename C:\Addis Gugsa why killing HDD\07 - Over And Over.wav

Peak level 99.9 %
Track quality 99.9 %
Test CRC 15461791
Copy CRC 15461791
Track not present in AccurateRip database
Copy OK

Track 8

Filename C:\Addis Gugsa why killing HDD\08 - Margaux.wav

Peak level 99.9 %
Track quality 100.0 %
Test CRC B05AE017
Copy CRC B05AE017
Track not present in AccurateRip database
Copy OK

Track 9

Filename C:\Addis Gugsa why killing HDD\09 - Table For Two.wav

Peak level 99.9 %
Track quality 99.9 %
Test CRC 1A65DD3F
Copy CRC 1A65DD3F
Track not present in AccurateRip database
Copy OK

Track 10

Filename C:\Addis Gugsa why killing HDD\10 - Trapped (12' Vocal - Regisford Mix).wav

Peak level 99.9 %
Track quality 99.9 %
Test CRC F21046F1
Copy CRC F21046F1
Track not present in AccurateRip database
Copy OK

Track 11

Filename C:\Addis Gugsa why killing HDD\11 - I'm Gonna Let You (12' Extended Mix).wav

Peak level 99.9 %
Track quality 100.0 %
Test CRC 37DD299A
Copy CRC 37DD299A
Track not present in AccurateRip database
Copy OK

Track 12

Filename C:\Addis Gugsa why killing HDD\12 - The Truth (12' A Silas Mix).wav

Peak level 99.9 %
Track quality 100.0 %
Test CRC 722548CC
Copy CRC 722548CC
Track not present in AccurateRip database
Copy OK

Track 13

Filename C:\Addis Gugsa why killing HDD\13 - Over And Over (12' Vocal Mix).wav

Peak level 99.9 %
Track quality 100.0 %
Test CRC 68968EAB
Copy CRC 68968EAB
Track not present in AccurateRip database
Copy OK

Track 14

Filename C:\Addis Gugsa why killing HDD\14 - Music Is The Answer.wav

Peak level 99.9 %
Track quality 100.0 %
Test CRC 0987AE43
Copy CRC 0987AE43
Track not present in AccurateRip database
Copy OK

None of the tracks are present in the AccurateRip database

No errors occurred

End of status report

Dynamic Range Meter log


foobar2000 1.3.9 / Dynamic Range Meter 1.1.1
log date: 2016-06-22 23:40:58

----------------------------------------
Analyzed: Colonel Abrams / Colonel Abrams
----------------------------------------

DR Peak RMS Duration Track
----------------------------------------
DR11 -0.01 dB -12.68 dB 4:43 01-The Truth
DR12 -0.01 dB -13.17 dB 5:02 02-Speculation
DR12 -0.01 dB -14.30 dB 5:47 03-Never Change
DR10 -0.01 dB -12.43 dB 4:30 04-Picture Me In Love With You
DR11 -0.01 dB -13.28 dB 3:40 05-Trapped
DR12 -0.01 dB -13.41 dB 4:54 06-I'm Gonna Let
DR12 -0.01 dB -14.51 dB 4:21 07-Over And Over
DR11 -0.01 dB -12.82 dB 5:47 08-Margaux
DR11 -0.01 dB -13.59 dB 2:41 09-Table For Two
DR9 -0.01 dB -11.45 dB 6:30 10-Trapped (12' Vocal - Regisford Mix)
DR10 -0.01 dB -11.58 dB 6:47 11-I'm Gonna Let You (12' Extended Mix)
DR11 -0.01 dB -12.31 dB 7:48 12-The Truth (12' A Silas Mix)
DR10 -0.01 dB -12.39 dB 6:22 13-Over And Over (12' Vocal Mix)
DR10 -0.01 dB -11.73 dB 6:40 14-Music Is The Answer
----------------------------------------

Number of tracks: 14
Official DR value: DR11

Samplerate: 44100 Hz
Channels: 2
Bits per sample: 16
Bitrate: 950 kbps
Codec: FLAC
================================================================================

All thanks to Addis



password: BlondStyle

Download link:



Links are Interchangeable - No Password - Single Extraction
Direct Download


Tags: Colonel, Abrams, Colonel, Abrams, Remastered, Expanded

Colonel Abrams - Colonel Abrams (1985) [2010, Remastered & Expanded Edition] Fast Download via Rapidshare Hotfile Fileserve Filesonic Megaupload, Colonel Abrams - Colonel Abrams (1985) [2010, Remastered & Expanded Edition] Torrents and Emule Download or anything related.
Dear visitor, you went to website as unregistered user.
We encourage you to Register or Login to website under your name.
Information
Members of Guest cannot leave comments.