Louie Bellson And His Orchestra - Skin Deep (1955) {Verve Elite Edition, 1999}

Category: Music | Comment: 0

Download Now

http://ultraimg.com/images/2016/06/24/KiHWY1466780654545.jpg

Louie Bellson & His Orchestra - Skin Deep (1954) {1999 Verve Elite Edition}
EAC Rip | FLAC with CUE and log | scans | 208 mb
MP3 CBR 320kbps | RAR | 133 mb
Genre: jazz

This Skin Deep CD consists of the two 10" LP's Louie Bellson recorded for Norman Granz's Norgran label, the material of which was later released on the 12" LP called Skin Deep. Duke Ellington fans may know of "Skin Deep" from the brilliant studio version on his Ellington Uptown album. When Bellson left Ellington's band, he recorded a version under his own name, a version that is equally as brilliant, and formed a legacy in his own right. Each 10" EP is distinct from the other, one with him as part of a quintet, the other with a big band. This is the Verve Elite Edition released on 27 July, 1999, remastered by Kevin Reeves.
http://ultraimg.com/images/2016/06/24/Z89KcAwz1466780658176.jpg

(Numbers in parentheses are Master # and take)
1. Percussionistically Speaking (1515-1)
2. A Pearl For Louie (1518-2)
3. Fascinatin' Rhythm (1513-4)
4. Copasetic (Long Version) (1514-1)
5. All God's Chillun Got Rhythm (1516-2)
6. Skin Deep (1253-3)
7. Loris (1517-2)
8. For Europeans Only (1251-1)
9. Phalanges (1252-4)
10. Caxton Hall Swing (1250-3)
11. Copasetic (Short Version) (1514-3)

1. Percussionistically Speaking (1515-1)
2. A Pearl For Louie (1518-2)
3. Fascinatin' Rhythm (1513-4)
4. Copasetic (Long Version) (1514-1)
5. All God's Chillun Got Rhythm (1516-2)
6. Skin Deep (1253-3)
7. Loris (1517-2)
8. For Europeans Only (1251-1)
9. Phalanges (1252-4)
10. Caxton Hall Swing (1250-3)
11. Copasetic (Short Version) (1514-3)

Tracks 1-5 original 10" LP issue: The Amazing Artistry Of Louis Bellson (Norgran MGN 7)
Tracks 6-10 original 10" LP issue: The Exciting Mr. Belson (and His Big Band) (Norgran MGN 14)
Track 11 original EP issue: The Amazing Artistry Of Louis Bellson (Norgran EPN 10)

Louie Bellson plays drums on all tracks accompanied by:

On tracks 1-5, 7 and 11:
Don Elliott-trumpet, mellphone, vibraphone, bongo
Ralph Martin-piano
Joe Puma-guitar
Bob Peterson-bass
Recorded probably early February 1954 in New York City

On tracks 6 and 8-10:
Harry "Sweets" Edison-trumpet
Maynard Ferguson-trumpet
Conrad Gozzo-trumpet
Ray Linn-trumpet
Hoyt Bohannon-trombone
Herbie Harper-trombone
Tommy Pederson-trombone
Benny Carter-alto saxophone
Willie Smith-alto saxophone
Wardell Gray-tenor saxophone
Bumps Myers-tenor saxophone
Bob Lawson-baritone saxophone
Jimmie Rowles-piano
Barney Kessel-guitar
John Simmons-bass
Don Redman-arranger
Recorded August 14, 1953 at Radio Recorders, Hollywood

Original recordings produced by Norman Granz
Tracks 1-5 and 6-10 are in their respective original 10" LP sequences
Master numbers show the order in which the tracks were recorded

CD reissue supervised, researched, and restored by Ben Young
Mastered by Kevin "Ratamacue" Reeves at Universal Music Studios-East


http://ultraimg.com/images/2016/06/24/oTChS1466780661223.jpg


EAC Log


EAC extraction logfile from 13. May 2007, 9:43 for CD
Louie Bellson & His Orchestra / Skin Deep

Used drive : LITE-ON DVDRW SOHW-1633S Adapter: 0 ID: 0
Read mode : Secure with NO C2, accurate stream, disable cache
Read offset correction : 12
Overread into Lead-In and Lead-Out : No

Used output format : Internal WAV Routines
44.100 Hz; 16 Bit; Stereo

Other options :
Fill up missing offset samples with silence : Yes
Delete leading and trailing silent blocks : No
Installed external ASPI interface

Track 1
Filename D:\FLAC\Louie Bellson & His Orchestra - Skin Deep (1954) [FLAC] {1999 Verve Elite Edition}\01 - Percussionistically Speaking.wav

Pre-gap length 0:00:02.00

Peak level 100.0 %
Track quality 100.0 %
Test CRC C393E0BF
Copy CRC C393E0BF
Copy OK

Track 2
Filename D:\FLAC\Louie Bellson & His Orchestra - Skin Deep (1954) [FLAC] {1999 Verve Elite Edition}\02 - A Pearl For Louie.wav

Pre-gap length 0:00:03.86

Peak level 90.0 %
Track quality 100.0 %
Test CRC 19D04836
Copy CRC 19D04836
Copy OK

Track 3
Filename D:\FLAC\Louie Bellson & His Orchestra - Skin Deep (1954) [FLAC] {1999 Verve Elite Edition}\03 - Fascinatin' Rhythm.wav

Pre-gap length 0:00:03.46

Peak level 88.4 %
Track quality 100.0 %
Test CRC C9202505
Copy CRC C9202505
Copy OK

Track 4
Filename D:\FLAC\Louie Bellson & His Orchestra - Skin Deep (1954) [FLAC] {1999 Verve Elite Edition}\04 - Copasetic.wav

Pre-gap length 0:00:03.66

Peak level 92.2 %
Track quality 100.0 %
Test CRC 5A7D17B6
Copy CRC 5A7D17B6
Copy OK

Track 5
Filename D:\FLAC\Louie Bellson & His Orchestra - Skin Deep (1954) [FLAC] {1999 Verve Elite Edition}\05 - All God's Chillun Got Rhythm.wav

Pre-gap length 0:00:03.73

Peak level 83.5 %
Track quality 100.0 %
Test CRC D7400E1C
Copy CRC D7400E1C
Copy OK

Track 6
Filename D:\FLAC\Louie Bellson & His Orchestra - Skin Deep (1954) [FLAC] {1999 Verve Elite Edition}\06 - Skin Deep.wav

Pre-gap length 0:00:04.13

Peak level 82.6 %
Track quality 100.0 %
Test CRC 3A2B17D5
Copy CRC 3A2B17D5
Copy OK

Track 7
Filename D:\FLAC\Louie Bellson & His Orchestra - Skin Deep (1954) [FLAC] {1999 Verve Elite Edition}\07 - Loris.wav

Pre-gap length 0:00:03.50

Peak level 57.4 %
Track quality 100.0 %
Test CRC E884F9BE
Copy CRC E884F9BE
Copy OK

Track 8
Filename D:\FLAC\Louie Bellson & His Orchestra - Skin Deep (1954) [FLAC] {1999 Verve Elite Edition}\08 - For Europeans Only.wav

Pre-gap length 0:00:03.97

Peak level 84.5 %
Track quality 99.9 %
Test CRC 066537EE
Copy CRC 066537EE
Copy OK

Track 9
Filename D:\FLAC\Louie Bellson & His Orchestra - Skin Deep (1954) [FLAC] {1999 Verve Elite Edition}\09 - Phalanges.wav

Pre-gap length 0:00:03.70

Peak level 86.3 %
Track quality 100.0 %
Test CRC 7AFFD132
Copy CRC 7AFFD132
Copy OK

Track 10
Filename D:\FLAC\Louie Bellson & His Orchestra - Skin Deep (1954) [FLAC] {1999 Verve Elite Edition}\10 - Caxton Hall Swing.wav

Pre-gap length 0:00:03.73

Peak level 71.9 %
Track quality 100.0 %
Test CRC CA2A4B4A
Copy CRC CA2A4B4A
Copy OK

Track 11
Filename D:\FLAC\Louie Bellson & His Orchestra - Skin Deep (1954) [FLAC] {1999 Verve Elite Edition}\11 - Copasetic (Short Version).wav

Pre-gap length 0:00:10.40

Peak level 80.4 %
Track quality 100.0 %
Test CRC B4AFDE88
Copy CRC B4AFDE88
Copy OK

No errors occured

End of status report
Download link:



Links are Interchangeable - No Password - Single Extraction
Direct Download


Tags: Bellson, Orchestra

Louie Bellson And His Orchestra - Skin Deep (1955) {Verve Elite Edition, 1999} Fast Download via Rapidshare Hotfile Fileserve Filesonic Megaupload, Louie Bellson And His Orchestra - Skin Deep (1955) {Verve Elite Edition, 1999} Torrents and Emule Download or anything related.
Dear visitor, you went to website as unregistered user.
We encourage you to Register or Login to website under your name.
Information
Members of Guest cannot leave comments.