Cheryl Lynn - Preppie (1983) [2012, Remastered & Expanded Edition]

Category: Music | Comment: 0

Download Now

http://ultraimg.com/images/2016/06/24/qxj6Nm71466780673403.jpg

Cheryl Lynn - Preppie (1983) [2012, Remastered & Expanded Edition]
R&B, Soul/Funk, Disco | EAC Rip | FLAC, Img+CUE+LOG+Full Scans-300dpi (PNG) | 70:39 Min | 543,67 Mb
Label: Funkytowngrooves (UK) | Released: 2012, September, 28

Preppie is the fifth studio album by American recording R&B artist Cheryl Lynn, released on September 16, 1983 by Columbia Records. The album features the R&B hit singles, "Encore" and "This Time".

http://ultraimg.com/images/2016/06/24/K6ptmJSw1466780677471.jpg


http://ultraimg.com/images/2016/06/24/hNl0Sl1466780680146.jpg


Release of the album: 1983, September, 16 [LP Columbia Records, Cat.# FC 38961, USA]
Release of this CD: 2012, September, 28 [CD Funkytowngrooves (UK), Cat.# FTGUK-007 / UPC: 5060196469925]
℗ 1987 Epic Records.
All tracks licensed courtesy of Sony Music Entertainment UK Ltd.
This compilation © 2012 Funkytowngrooves.
Note: Remastered from the Original Master Tapes with 4 Bonus Tracks
Marketed and Distributed by Funkytowngrooves Ltd.
Made in the E.C.


Arranged By - Michael McGloiry
Arranged By [Strings], Programmed By [Strings] - Bill Wolfer
Coordinator [Production Assistant] - Sharon Jack
Design - Lane/Donald/Stark
Engineer [Associate] - Jeff De Morris (tracks: 2 to 10)
Executive-Producer - Larkin Arnold
Mastered By - Jeff Sanders
Photography By - Raul Vega
Producer, Arranged By [Vocals] - Cheryl Lynn
Recorded By, Mixed By - Mark Howlett (tracks: 2 to 10)

Production Manager [Reissue] - Matt Murphy (4)
Reissue Producer - Tony Calvert
Reissue Producer [Assistant] - Randy Mahon
Remastered By - Maria Triana


Tracklist:

01. Encore (05:20)
(James Harris III / Terry Lewis)
02. Fix It (04:04)
(Andrew Gouche / T. Johnston / Cheryl Lynn / Michael McGloiry)
03. Fool A Fool (03:53)
(K. Guillaume / T. Johnston)
04. This Time (04:31)
(T. Johnston)
05. Change the Channel (03:20)
(Vince DiCola / T. Johnston)
06. Preppie (04:11)
(Cheryl Lynn / Michael McGloiry)
07. Love Rush (04:17)
(J. Barnes / Cheryl Lynn)
08. No One Else Will Do (04:51)
(L. Bates / Perry Peyton)
09. Free (04:45)
(Cheryl Lynn / Steve Stephens)
10. Life's Too Short (05:11)
(Chyase)

Bonus Tracks:

11. Encore (Dance Version) (08:21)
(James Harris III / Terry Lewis)
12. Free (Special 12" Version) (07:22)
(Cheryl Lynn / Steve Stephens)
13. Preppie (12" Version) (05:00)
(Cheryl Lynn / Michael McGloiry)
14. Preppie (12" Club Mix) (05:35)
(Cheryl Lynn / Michael McGloiry)

EAC log


Exact Audio Copy V1.0 beta 3 from 29. August 2011

EAC extraction logfile from 11. May 2013, 17:14

Cheryl Lynn / Preppie

Used drive : Memorex 52MAXX 3252AJ1 Adapter: 1 ID: 0

Read mode : Secure
Utilize accurate stream : Yes
Defeat audio cache : Yes
Make use of C2 pointers : No

Read offset correction : 6
Overread into Lead-In and Lead-Out : No
Fill up missing offset samples with silence : Yes
Delete leading and trailing silent blocks : No
Null samples used in CRC calculations : Yes
Used interface : Native Win32 interface for Win NT & 2000

Used output format : User Defined Encoder
Selected bitrate : 1024 kBit/s
Quality : High
Add ID3 tag : No
Command line compressor : C:\Program Files (x86)\Exact Audio Copy\Flac\flac.exe
Additional command line options : %ishigh%-V -p -l 12 -b 4096 -m -e -r 8%ishigh%%islow%-5%islow% -replay-gain -T "ARTIST=%artist%" -T "ALBUM=%albumtitle%" -T "TITLE=%title%" -T "DATE=%year%" -T "TRACKNUMBER=%tracknr%" -T "GENRE=%genre%" -T "ENSEMBLE=%albuminterpret%" -T "ALBUMARTIST=%albumartist%" -T "COMPOSER=%albumcomposer%" -T "DISCNUMBER=%cdnumber%" -T "TOTALDISCS=%totalcds%" -T "TOTALTRACKS=%numtracks%" -T "SOURCEMEDIA=CD" -T "COMMENT=%comment%" %hascover%-T "PICTURE=%coverfile%"%hascover% %source%

TOC of the extracted CD

Track | Start | Length | Start sector | End sector
-----------------------------
1 | 0:00.00 | 5:19.61 | 0 | 23985
2 | 5:19.61 | 4:03.51 | 23986 | 42261
3 | 9:23.37 | 3:52.41 | 42262 | 59702
4 | 13:16.03 | 4:31.03 | 59703 | 80030
5 | 17:47.06 | 3:20.18 | 80031 | 95048
6 | 21:07.24 | 4:11.03 | 95049 | 113876
7 | 25:18.27 | 4:17.30 | 113877 | 133181
8 | 29:35.57 | 4:50.47 | 133182 | 154978
9 | 34:26.29 | 4:44.43 | 154979 | 176321
10 | 39:10.72 | 5:10.40 | 176322 | 199611
11 | 44:21.37 | 8:20.69 | 199612 | 237180
12 | 52:42.31 | 7:21.72 | 237181 | 270327
13 | 60:04.28 | 5:00.22 | 270328 | 292849
14 | 65:04.50 | 5:34.50 | 292850 | 317949

Range status and errors

Selected range

Filename C:\Users\[email protected]\Music\Archives\Rips\Cheryl Lynn - Preppie.wav

Peak level 98.6 %
Extraction speed 9.0 X
Range quality 99.9 %
Test CRC DDB08DC4
Copy CRC DDB08DC4
Copy OK

No errors occurred


AccurateRip summary

Track 1 not present in database
Track 2 not present in database
Track 3 not present in database
Track 4 not present in database
Track 5 not present in database
Track 6 not present in database
Track 7 not present in database
Track 8 not present in database
Track 9 not present in database
Track 10 not present in database
Track 11 not present in database
Track 12 not present in database
Track 13 not present in database
Track 14 not present in database

None of the tracks are present in the AccurateRip database

End of status report

-- CUETools DB Plugin V2.1.4

[CTDB TOCID: HDjRtc69fdbbm8oNMVdrzblm6tw-] found
Submit result: HDjRtc69fdbbm8oNMVdrzblm6tw- has been confirmed
Track | CTDB Status
1 | (2/2) Accurately ripped
2 | (2/2) Accurately ripped
3 | (2/2) Accurately ripped
4 | (2/2) Accurately ripped
5 | (2/2) Accurately ripped
6 | (2/2) Accurately ripped
7 | (2/2) Accurately ripped
8 | (2/2) Accurately ripped
9 | (2/2) Accurately ripped
10 | (2/2) Accurately ripped
11 | (2/2) Accurately ripped
12 | (2/2) Accurately ripped
13 | (2/2) Accurately ripped
14 | (2/2) Accurately ripped

==== Log checksum 8771499EB7097DAE9F63CD2BEB847857D78A9CDA0FADCC88E13D0F511D9C5222 ====

Dynamic Range Meter log


foobar2000 1.3.9 / Dynamic Range Meter 1.1.1
log date: 2016-06-24 00:09:27

----------------------------------------
Analyzed: Cheryl Lynn / Preppie
----------------------------------------

DR Peak RMS Duration Track
----------------------------------------
DR12 -0.43 dB -14.25 dB 5:20 01-Encore
DR11 -0.15 dB -12.54 dB 4:04 02-Fix It
DR11 -0.19 dB -12.36 dB 3:53 03-Fool A Fool
DR11 -0.22 dB -13.57 dB 4:31 04-This Time
DR11 -0.19 dB -13.03 dB 3:20 05-Change The Channel
DR11 -0.12 dB -12.16 dB 4:11 06-Preppie
DR11 -0.19 dB -12.48 dB 4:17 07-Love Rush
DR11 -0.22 dB -13.56 dB 4:51 08-No One Else Will Do
DR10 -0.14 dB -11.57 dB 4:45 09-Free
DR11 -0.12 dB -12.19 dB 5:11 10-Life's Too Short
DR12 -0.19 dB -13.28 dB 8:21 11-Encore (Dance Version)
DR11 -0.20 dB -12.49 dB 7:22 12-Free (Special 12' Version)
DR10 -0.27 dB -12.69 dB 5:00 13-Preppie (12'' Version)
DR10 -0.43 dB -12.02 dB 5:35 14-Preppie (12'' Club Mix)
----------------------------------------

Number of tracks: 14
Official DR value: DR11

Samplerate: 44100 Hz
Channels: 2
Bits per sample: 16
Bitrate: 928 kbps
Codec: FLAC
================================================================================

password: BlondStyle
Download link:



Links are Interchangeable - No Password - Single Extraction
Direct Download


Tags: Cheryl, Preppie, Remastered, Expanded

Cheryl Lynn - Preppie (1983) [2012, Remastered & Expanded Edition] Fast Download via Rapidshare Hotfile Fileserve Filesonic Megaupload, Cheryl Lynn - Preppie (1983) [2012, Remastered & Expanded Edition] Torrents and Emule Download or anything related.
Dear visitor, you went to website as unregistered user.
We encourage you to Register or Login to website under your name.
Information
Members of Guest cannot leave comments.