VA - North Sea Jazz - Highlights (2016) [HDTV, 1080i]

Category: Music | Comment: 0

Download Now

http://s2.1pic.org/files/2016/07/20/2043104ac7583f5c4737.jpg

VA - North Sea Jazz - Highlights (2016)
HDTV, 1080i | TS | MPEG4 Video (H264) 1920x1080 25fps 11.7 Mbps | 16.01 GB
Audio: Dolby AC3 48000Hz 6ch 448kbps | Length: 01:23:38+01:35:40
Genre: Jazz, Blues, Rock | Nitroflare/Filefactory/Bigfile

The first edition of the North Sea Jazz Festival took place in 1976 in the Nederlands Congresgebouw in The Hague. Some numbers in those early days: six venues, three hundred artists and about nine thousand visitors. In this very first festival year internationally renowned jazz legends performed, such as Sarah Vaughan, Count Basie, Dizzy Gillespie and Stan Getz, as well as most Dutch avant-garde artists.

In 2006, the festival moved to its current, bigger, location in Rotterdam. This year, the organisation expects more than a thousand musicians, spread out over 150 performances and thirteen different stages. Though the numbers of visitors were between 65.000 and 70.000 in recent years, the festival still manages to retain its intimate character.


http://s2.1pic.org/files/2016/07/20/a83ee196dedd4721cf48.jpg


http://s2.1pic.org/files/2016/07/20/601225aedec08f0d076a.jpg


http://s2.1pic.org/files/2016/07/20/efaeedd5823fb0b188d4.jpg


http://s2.1pic.org/files/2016/07/20/21e33c392476eefc469f.jpg


http://s2.1pic.org/files/2016/07/20/00b669cdcbc87fa967c8.jpg


http://s2.1pic.org/files/2016/07/20/2e59ad858fc9c14649d9.jpg


Tracklist

Part 1
Intro
01. The Roots - The Seed 2.0 / Move On Up [Curtis Mayfield cover] / Apache [The Shadows cover]
02. Buddy Guy Interview
03. Buddy Guy - Born To Play Guitar
04. Jules Buckley (conductor Metropole Orkest) & Michael League (Snarky Puppy) Interview
05. Snarky Puppy & Metropole Orkest - Shofukan
06. Pokey LaFarge - La La Blues
07. The James Hunter Six - (Baby) Hold On
08. Christian Scott Interview
09. Christian Scott - The Last Chieftain
10. Allen Stone - Perfect World
11. Vintage Trouble Interview
12. Vintage Trouble - Run Like The River
13. Mark King (Level 42) Interview
14. Level 42 - Love Games
15. Level 42 - Hot Water
16. Gallant - Percogesic
17. The Roots - Men @ Work
18. Vintage Trouble - Strike Your Light

Part 2
Intro
01. Earth, Wind & Fire - Boogie Wonderland
02. Anderson .Paak - Put Me Thru
03. Anderson .Paak Interview
04. Anderson .Paak - Come Down
05. Ibrahim Maalouf - True Sorry
06. Charlie Wilson - Burn Rubber
07. Charlie Wilson - Uptown Funk
08. Ronald Snijders Interview
09. Ronald Snijders - Busy Street
10. Jacob Collier Interview
11. Jacob Collier - Don't You Know
12. Sabrina Starke - All In Line
13. Gregory Porter - Don't Lose Your Steam
14. Fresku - Ik Wil
15. Fresku Interview
16. Pharrell Williams - Freedom
17. ZO! Gospel Choir Interview
18. Kamasi Washington & Metropole Orkest - The Rhythm Changes
19. Hiatus Kaiyote - Nakamarra
20. Jameszoo Quintet - Crumble
21. Mitchel van Dinther (Jameszoo) Interview
22. Jameszoo Quintet - Meat
23. Kneebody & Daedelus Interview
24. Kneebody & Daedelus - Drum Battle
25. The Jones Family Singers Interview
26. The Jones Family Singers - I Am
27. The Jones Family Singers -
28. Cory Henry Interview
29. Cory Henry - Takes All Time

Mediainfo part1 and part2


General
ID : 1 (0x1)
Complete name : D:\North Sea Jazz Highlights 2016\North Sea Jazz (Highlights Part 1) 2016.ts
Format : MPEG-TS
File size : 7.47 GiB
Duration : 1h 23mn
Overall bit rate mode : Variable
Overall bit rate : 12.8 Mbps

Video
ID : 3331 (0xD03)
Menu ID : 1 (0x1)
Format : AVC
Format/Info : Advanced Video Codec
Format profile : [email protected]
Format settings, CABAC : Yes
Format settings, ReFrames : 4 frames
Codec ID : 27
Duration : 1h 23mn
Bit rate : 11.7 Mbps
Width : 1 920 pixels
Height : 1 080 pixels
Display aspect ratio : 16:9
Frame rate : 25.000 fps
Color space : YUV
Chroma subsampling : 4:2:0
Bit depth : 8 bits
Scan type : Interlaced
Scan order : Top Field First
Bits/(Pixel*Frame) : 0.226
Stream size : 6.83 GiB (92%)
Color range : Limited
Color primaries : BT.709
Transfer characteristics : BT.709
Matrix coefficients : BT.709

Audio
ID : 3332 (0xD04)
Menu ID : 1 (0x1)
Format : AC-3
Format/Info : Audio Coding 3
Mode extension : CM (complete main)
Format settings, Endianness : Big
Codec ID : 6
Duration : 1h 23mn
Bit rate mode : Constant
Bit rate : 448 Kbps
Channel(s) : 6 channels
Channel positions : Front: L C R, Side: L R, LFE
Sampling rate : 48.0 KHz
Compression mode : Lossy
Stream size : 268 MiB (4%)
Language : Dutch

General
ID : 1 (0x1)
Complete name : D:\North Sea Jazz Highlights 2016\North Sea Jazz (Highlights Part 2) 2016.ts
Format : MPEG-TS
File size : 8.54 GiB
Duration : 1h 35mn
Overall bit rate mode : Variable
Overall bit rate : 12.8 Mbps

Video
ID : 3331 (0xD03)
Menu ID : 1 (0x1)
Format : AVC
Format/Info : Advanced Video Codec
Format profile : [email protected]
Format settings, CABAC : Yes
Format settings, ReFrames : 4 frames
Codec ID : 27
Duration : 1h 35mn
Bit rate : 11.7 Mbps
Width : 1 920 pixels
Height : 1 080 pixels
Display aspect ratio : 16:9
Frame rate : 25.000 fps
Color space : YUV
Chroma subsampling : 4:2:0
Bit depth : 8 bits
Scan type : Interlaced
Scan order : Top Field First
Bits/(Pixel*Frame) : 0.226
Stream size : 7.82 GiB (92%)
Color range : Limited
Color primaries : BT.709
Transfer characteristics : BT.709
Matrix coefficients : BT.709

Audio
ID : 3332 (0xD04)
Menu ID : 1 (0x1)
Format : AC-3
Format/Info : Audio Coding 3
Mode extension : CM (complete main)
Format settings, Endianness : Big
Codec ID : 6
Duration : 1h 35mn
Bit rate mode : Constant
Bit rate : 448 Kbps
Channel(s) : 6 channels
Channel positions : Front: L C R, Side: L R, LFE
Sampling rate : 48.0 KHz
Compression mode : Lossy
Delay relative to video : -40ms
Stream size : 307 MiB (4%)
Language : Dutch

Thanks to the original uploader
Download link:

Password If Need: http://pasted.co/85b8d6e5

rapidgator_net:
http://rapidgator.net/file/a47a1daded3f3f33ec50db762f8dea24/1tthl.part.1.part01.rar.html
http://rapidgator.net/file/437806d7befaaa93f5cfabb22678500e/1tthl.part.1.part02.rar.html
http://rapidgator.net/file/8f3af1d84bae32fcd98f3962ffc97793/1tthl.part.1.part03.rar.html
http://rapidgator.net/file/b67e3189347594fa06d512619520355d/1tthl.part.1.part04.rar.html
http://rapidgator.net/file/bff07b067dd8b950a08af298f18b0be2/1tthl.part.1.part05.rar.html
http://rapidgator.net/file/824098777a2b823aef195daec166d5a2/1tthl.part.1.part06.rar.html
http://rapidgator.net/file/a1aec898e1301f410b578b6da6d2c7de/1tthl.part.1.part07.rar.html
http://rapidgator.net/file/12191da3dd90bd967f3736ffd5a6226f/1tthl.part.1.part08.rar.html
http://rapidgator.net/file/568b32321d65751cac25cf28ed3fa776/1tthl.part.1.part09.rar.html
http://rapidgator.net/file/edc00f5abacf8185d62036925e296bdb/1tthl.part.2.part01.rar.html
http://rapidgator.net/file/196aa2a2391c42651639aa6a835a3018/1tthl.part.2.part02.rar.html
http://rapidgator.net/file/d292e010aa7336e63c2f4d5c8f39547c/1tthl.part.2.part03.rar.html
http://rapidgator.net/file/6c0344049525aa22a573ac14c565fb4f/1tthl.part.2.part04.rar.html
http://rapidgator.net/file/41f20b2fdb36d7e459bfb98744de0ccf/1tthl.part.2.part05.rar.html
http://rapidgator.net/file/53421ba1847398bdadbf1e4425643bcd/1tthl.part.2.part06.rar.html
http://rapidgator.net/file/de68dbe527e5457749f3279a10c28289/1tthl.part.2.part07.rar.html
http://rapidgator.net/file/f6fa00b4d02af061b870f8b97f5de51a/1tthl.part.2.part08.rar.html
http://rapidgator.net/file/792c8b84ec8fbbae2d1d33a880d4c046/1tthl.part.2.part09.rar.html
http://rapidgator.net/file/902262bc0b46bd7b979b0e61f6fc77f9/1tthl.part.2.part10.rar.html

nitroflare_com:
http://nitroflare.com/view/129CE67E051082B/1tthl.part.1.part01.rar
http://nitroflare.com/view/F0976E224D34FBF/1tthl.part.1.part02.rar
http://nitroflare.com/view/34A5584F9342B6D/1tthl.part.1.part03.rar
http://nitroflare.com/view/275F0828075005B/1tthl.part.1.part04.rar
http://nitroflare.com/view/D9315DAF6B43955/1tthl.part.1.part05.rar
http://nitroflare.com/view/7B728FEF3BF68DA/1tthl.part.1.part06.rar
http://nitroflare.com/view/4C57E4D0FF27EA9/1tthl.part.1.part07.rar
http://nitroflare.com/view/C2CAF13DCE9D9FD/1tthl.part.1.part08.rar
http://nitroflare.com/view/0BFB1ADCB270DE6/1tthl.part.1.part09.rar
http://nitroflare.com/view/4D3D9026F6BC1E3/1tthl.part.2.part01.rar
http://nitroflare.com/view/279859ADBE9B111/1tthl.part.2.part02.rar
http://nitroflare.com/view/09C9E914B320481/1tthl.part.2.part03.rar
http://nitroflare.com/view/6D6996427D13504/1tthl.part.2.part04.rar
http://nitroflare.com/view/1163FC382B2F777/1tthl.part.2.part05.rar
http://nitroflare.com/view/24F49F6B705BA14/1tthl.part.2.part06.rar
http://nitroflare.com/view/AE0391462CB31EA/1tthl.part.2.part07.rar
http://nitroflare.com/view/558280101E99138/1tthl.part.2.part08.rar
http://nitroflare.com/view/703FA68973F221C/1tthl.part.2.part09.rar
http://nitroflare.com/view/047282C401FD865/1tthl.part.2.part10.rar

bytewhale_com:
https://bytewhale.com/d5sri1fhxje0/1tthl.part.1.part01.rar
https://bytewhale.com/3gike82xayyi/1tthl.part.1.part02.rar
https://bytewhale.com/n8ldvvw9pt8m/1tthl.part.1.part03.rar
https://bytewhale.com/v92pnw7y61ct/1tthl.part.1.part04.rar
https://bytewhale.com/x6e8fy7xidox/1tthl.part.1.part05.rar
https://bytewhale.com/54zt2mgsgap3/1tthl.part.1.part06.rar
https://bytewhale.com/qndz9duwreuh/1tthl.part.1.part07.rar
https://bytewhale.com/0qfwy1zx5831/1tthl.part.1.part08.rar
https://bytewhale.com/sa5dpcos4grk/1tthl.part.1.part09.rar
https://bytewhale.com/898gag4urwgj/1tthl.part.2.part01.rar
https://bytewhale.com/2ij2i3xxusye/1tthl.part.2.part02.rar
https://bytewhale.com/48ecjv4snhmi/1tthl.part.2.part03.rar
https://bytewhale.com/o8krbmrisose/1tthl.part.2.part04.rar
https://bytewhale.com/8oqxt9zid30b/1tthl.part.2.part05.rar
https://bytewhale.com/hz97e4ekojpz/1tthl.part.2.part06.rar
https://bytewhale.com/a2gjv29hycj7/1tthl.part.2.part07.rar
https://bytewhale.com/2r753orhd8sp/1tthl.part.2.part08.rar
https://bytewhale.com/s28bhmfsyz21/1tthl.part.2.part09.rar
https://bytewhale.com/2oey6zmkgf7s/1tthl.part.2.part10.rar

Links are Interchangeable - No Password - Single Extraction
Direct Download


Tags: Highlights

VA - North Sea Jazz - Highlights (2016) [HDTV, 1080i] Fast Download via Rapidshare Hotfile Fileserve Filesonic Megaupload, VA - North Sea Jazz - Highlights (2016) [HDTV, 1080i] Torrents and Emule Download or anything related.
Dear visitor, you went to website as unregistered user.
We encourage you to Register or Login to website under your name.
Information
Members of Guest cannot leave comments.