Jimi Hendrix - Plays Berkeley (2012) [BDRip 1080p] Repost

Category: Music | Comment: 0

Download Now

http://s2.1pic.org/files/2016/08/07/24d2165fef104bf377eb.jpg

Jimi Hendrix - Plays Berkeley (2012)
BDRip 1080p | MKV | 1440x1080 / 4:3 / 23,976 fps / ~7934 Kbps | 4.37 GB
Audio: English DTS 5.1 / 48 kHz / 1510 kbps / 24 bits | Length: 1:04:56
Genre: Rock, Psychedelic Rock | Nitroflare/Filefactory/Bigfile

This special, expanded edition of Jimi Plays Berkeley showcases some of Jimi's finest ever performances filmed over two concerts at the Berkeley Community Theatre on May 30, 1970. The film documented the political unrest and student uprisings in Berkeley juxtaposed against such legendary Hendrix live performances as "Johnny B. Goode," "Star Spangled Banner," "I Don't Live Today" and "Purple Haze."


http://s2.1pic.org/files/2016/08/07/3e5a639444bb017b6d61.jpg


http://s2.1pic.org/files/2016/08/07/d8c733749b85b7e68bfa.jpg


http://s2.1pic.org/files/2016/08/07/d507a1cf980fca268638.jpg


http://s2.1pic.org/files/2016/08/07/76d85d1ea1f4e9f92599.jpg


http://s2.1pic.org/files/2016/08/07/6596661bc9702ab736d2.jpg


Tracklist
Jimi in Limousine
Afternoon Rehearsals
"Johnny B. Goode"
"Hear My Train A Comin'"
"Start Spangled Banner"
"Purple Haze"
"Hey Baby (New Rising Sun)"
"Lover Man"
"I Don't Live Today"
"Machine Gun"
"Voodoo Child (Slight Return)"

MediaInfo


General
Complete name : C:\Jimi.Hendrix.Plays.Berkeley.1080p.2012.MBluRay.x264-MOOVEE.mkv
Format : Matroska
File size : 4.37 GiB
Duration : 1h 4mn
Overall bit rate : 9 636 Kbps
Encoded date : UTC 2012-07-12 05:04:52
Writing application : mkvmerge v5.6.0 ('Kenya Kane') built on May 27 2012 16:44:04
Writing library : libebml v1.2.3 + libmatroska v1.3.0

Video
ID : 1
Format : AVC
Format/Info : Advanced Video Codec
Format profile : [email protected]
Format settings, CABAC : Yes
Format settings, ReFrames : 4 frames
Muxing mode : Container [email protected]
Codec ID : V_MPEG4/ISO/AVC
Duration : 1h 4mn
Bit rate : 7 934 Kbps
Nominal bit rate : 8 131 Kbps
Width : 1 440 pixels
Height : 1 080 pixels
Display aspect ratio : 4:3
Frame rate : 23.976 fps
Resolution : 8 bits
Colorimetry : 4:2:0
Scan type : Progressive
Bits/(Pixel*Frame) : 0.213
Stream size : 3.60 GiB (82%)
Writing library : x264 core 125 r2200 999b753
Encoding settings : cabac=1 / ref=4 / deblock=1:0:0 / analyse=0x3:0x133 / me=umh / subme=8 / psy=1 / psy_rd=1.00:0.00 / mixed_ref=1 / me_range=16 / chroma_me=1 / trellis=1 / 8x8dct=1 / cqm=0 / deadzone=21,11 / fast_pskip=0 / chroma_qp_offset=-2 / threads=18 / lookahead_threads=3 / sliced_threads=0 / nr=0 / decimate=1 / interlaced=0 / bluray_compat=0 / constrained_intra=0 / bframes=3 / b_pyramid=2 / b_adapt=1 / b_bias=0 / direct=1 / weightb=1 / open_gop=0 / weightp=2 / keyint=250 / keyint_min=23 / scenecut=40 / intra_refresh=0 / rc_lookahead=40 / rc=2pass / mbtree=1 / bitrate=8131 / ratetol=1.0 / qcomp=0.60 / qpmin=0 / qpmax=69 / qpstep=4 / cplxblur=20.0 / qblur=0.5 / ip_ratio=1.40 / aq=1:1.00

Audio
ID : 2
Format : DTS
Format/Info : Digital Theater Systems
Codec ID : A_DTS
Duration : 1h 4mn
Bit rate mode : Constant
Bit rate : 1 510 Kbps
Channel(s) : 6 channels
Channel positions : Front: L C R, Side: L R, LFE
Sampling rate : 48.0 KHz
Resolution : 24 bits
Stream size : 701 MiB (16%)

Thanks to the original uploader
Download link:

filejoker_net:
https://filejoker.net/7bnldu68ae6i/b7iqb.Jimi.Hendrix..Plays.Berkeley.2012.BDRip.1080p.Repost.part1.rar
https://filejoker.net/q8odc2pavpni/b7iqb.Jimi.Hendrix..Plays.Berkeley.2012.BDRip.1080p.Repost.part2.rar
https://filejoker.net/k5q0qecigi7s/b7iqb.Jimi.Hendrix..Plays.Berkeley.2012.BDRip.1080p.Repost.part3.rar
https://filejoker.net/wei8kq0kz436/b7iqb.Jimi.Hendrix..Plays.Berkeley.2012.BDRip.1080p.Repost.part3.rar
https://filejoker.net/mxuncse1wdb0/b7iqb.Jimi.Hendrix..Plays.Berkeley.2012.BDRip.1080p.Repost.part4.rar
https://filejoker.net/9pq1narn41si/b7iqb.Jimi.Hendrix..Plays.Berkeley.2012.BDRip.1080p.Repost.part4.rar
https://filejoker.net/d63jmkj3mgnh/b7iqb.Jimi.Hendrix..Plays.Berkeley.2012.BDRip.1080p.Repost.part5.rar

ausfile_com:
https://ausfile.com/8rstfdci2f2q/b7iqb.Jimi.Hendrix..Plays.Berkeley.2012.BDRip.1080p.Repost.part1.rar.html
https://ausfile.com/h9l0ky17cbtf/b7iqb.Jimi.Hendrix..Plays.Berkeley.2012.BDRip.1080p.Repost.part1.rar.html
https://ausfile.com/pbvsp0v2681q/b7iqb.Jimi.Hendrix..Plays.Berkeley.2012.BDRip.1080p.Repost.part2.rar.html
https://ausfile.com/0pf49clc3gml/b7iqb.Jimi.Hendrix..Plays.Berkeley.2012.BDRip.1080p.Repost.part2.rar.html
https://ausfile.com/1op9k3hqx9xr/b7iqb.Jimi.Hendrix..Plays.Berkeley.2012.BDRip.1080p.Repost.part3.rar.html
https://ausfile.com/rvbiu0jmbzqy/b7iqb.Jimi.Hendrix..Plays.Berkeley.2012.BDRip.1080p.Repost.part4.rar.html
https://ausfile.com/8icxd6qx8r02/b7iqb.Jimi.Hendrix..Plays.Berkeley.2012.BDRip.1080p.Repost.part5.rar.html
https://ausfile.com/ftow0tpz46b7/b7iqb.Jimi.Hendrix..Plays.Berkeley.2012.BDRip.1080p.Repost.part5.rar.html

nitroflare_com:
http://nitroflare.com/view/285BFEEA6A2D982/b7iqb.Jimi.Hendrix..Plays.Berkeley.2012.BDRip.1080p.Repost.part1.rar
http://nitroflare.com/view/FACEEE62ADD72FD/b7iqb.Jimi.Hendrix..Plays.Berkeley.2012.BDRip.1080p.Repost.part2.rar
http://nitroflare.com/view/9CACDD973B23D47/b7iqb.Jimi.Hendrix..Plays.Berkeley.2012.BDRip.1080p.Repost.part3.rar
http://nitroflare.com/view/2DDF9D1AEF41D93/b7iqb.Jimi.Hendrix..Plays.Berkeley.2012.BDRip.1080p.Repost.part4.rar
http://nitroflare.com/view/69F5F6F04D46C42/b7iqb.Jimi.Hendrix..Plays.Berkeley.2012.BDRip.1080p.Repost.part5.rar

bytewhale_com:
https://bytewhale.com/dq2abkj72qpw/b7iqb.Jimi.Hendrix..Plays.Berkeley.2012.BDRip.1080p.Repost.part1.rar
https://bytewhale.com/uadbj5x4dgxv/b7iqb.Jimi.Hendrix..Plays.Berkeley.2012.BDRip.1080p.Repost.part2.rar
https://bytewhale.com/l8plryo63nl5/b7iqb.Jimi.Hendrix..Plays.Berkeley.2012.BDRip.1080p.Repost.part3.rar
https://bytewhale.com/yky39cxm8aob/b7iqb.Jimi.Hendrix..Plays.Berkeley.2012.BDRip.1080p.Repost.part4.rar
https://bytewhale.com/sloztcpkowfd/b7iqb.Jimi.Hendrix..Plays.Berkeley.2012.BDRip.1080p.Repost.part5.rar

Links are Interchangeable - No Password - Single Extraction
Direct Download


Tags: Hendrix, Berkeley, Repost

Jimi Hendrix - Plays Berkeley (2012) [BDRip 1080p] Repost Fast Download via Rapidshare Hotfile Fileserve Filesonic Megaupload, Jimi Hendrix - Plays Berkeley (2012) [BDRip 1080p] Repost Torrents and Emule Download or anything related.
Dear visitor, you went to website as unregistered user.
We encourage you to Register or Login to website under your name.
Information
Members of Guest cannot leave comments.