Hollywood Undead - Desperate Measures (2009) [DVDRip]

Category: Music | Comment: 0

Download Now

http://s2.1pic.org/files/2016/08/09/3c8d99eae9ca73ac826f.jpg

Hollywood Undead - Desperate Measures (2009)
DVDRip | MKV | x264 NTSC 23.976 FPS / 2914 kbps | Audio: 48000Hz AC3 2.0 448kbps
Genre: Rap/Nu Metal | Length: 00:59:12 | 1.41 GB

Hollywood Undead Live at the Sunshine Theater, Albuquerque New Mexico and the Marquee Theater, Tempe, Arizona. The concert footage is bracketed by "interlude" segments of audience interaction, as well as interview and behind-the-scenes footage, much of it black-and-white between many of the songs
"Desperate Measures is the second CD/DVD box set by American rock band Hollywood Undead. The album was released on November 10, 2009 through A&M Records and Octone Records


http://s2.1pic.org/files/2016/08/09/b1fb57b1a99ededa0f1e.jpg


http://s2.1pic.org/files/2016/08/09/eb51752c0f3cb47055b7.jpg


http://s2.1pic.org/files/2016/08/09/3318db8944a0bc398df3.jpg


http://s2.1pic.org/files/2016/08/09/5577f06f07901a56eb9a.jpg


http://s2.1pic.org/files/2016/08/09/11cfd2fcbaa39eeeaf20.jpg


http://s2.1pic.org/files/2016/08/09/b2395638f85e9d180cc9.jpg


Tracklist
01. Intro / Undead [00:00:00]
02. Sell Your Soul [00:06:03]
03. Faking The Folk (Intermission) [00:09:38]
04. Bottle And A Gun [00:11:17]
05. What's In a Name (Intermission) [00:14:40]
06. California [00:16:09]
07. First Time (Intermission) [00:21:51]
08. No Other Place [00:24:55]
09. City [00:28:20]
10. Favourite (Intermission) [00:31:52]
11. Paradise Lost [00:34:10]
12. Black Dahlia [00:38:22]
13. Young [00:44:20]
14. I think I Just Puked My Soul Out (Intermission)[00:47:42]
15. Everywhere I Go [00:50:14]
16. Lovin' da Kurlzz (Intermission) [00:54:33]
17. No. 5 [00:55:04] [00:59:12]

MediaInfo


General
Unique ID : 213552681097496599283723668476961942520 (0xA0A8C0152AC89C81A6ECBCBB5462EBF8)
Complete name : C:\Users\ggu\Desktop\ggu\Hollywood_Undead-Desperate_Measures-READNFO-DVDRip-Retail-x264-2009-SRP\hollywood_undead-desperate_measures-.mkv
Format : Matroska
Format version : Version 4 / Version 2
File size : 1.42 GiB
Duration : 59mn 12s
Overall bit rate : 3 430 Kbps
Encoded date : UTC 2016-08-07 12:39:08
Writing application : mkvmerge v9.2.0 ('Photograph') 64bit
Writing library : libebml v1.3.3 + libmatroska v1.4.4

Video
ID : 1
Format : AVC
Format/Info : Advanced Video Codec
Format profile : [email protected]
Format settings, CABAC : Yes
Format settings, ReFrames : 5 frames
Codec ID : V_MPEG4/ISO/AVC
Duration : 59mn 12s
Bit rate : 2 980 Kbps
Width : 720 pixels
Height : 480 pixels
Display aspect ratio : 1.85:1
Original display aspect ratio : 1.85:1
Frame rate mode : Constant
Frame rate : 23.976 (24000/1001) fps
Color space : YUV
Chroma subsampling : 4:2:0
Bit depth : 8 bits
Scan type : Progressive
Bits/(Pixel*Frame) : 0.360
Stream size : 1.23 GiB (87%)
Writing library : x264 core 148 r2692 64f4e24
Encoding settings : cabac=1 / ref=5 / deblock=1:-1:-1 / analyse=0x1:0x131 / me=umh / subme=9 / psy=1 / psy_rd=1.00:0.00 / mixed_ref=1 / me_range=24 / chroma_me=1 / trellis=1 / 8x8dct=0 / cqm=0 / deadzone=21,11 / fast_pskip=0 / chroma_qp_offset=-2 / threads=12 / lookahead_threads=3 / sliced_threads=0 / nr=0 / decimate=1 / interlaced=0 / bluray_compat=0 / constrained_intra=0 / bframes=16 / b_pyramid=2 / b_adapt=2 / b_bias=0 / direct=3 / weightb=1 / open_gop=0 / weightp=2 / keyint=240 / keyint_min=23 / scenecut=40 / intra_refresh=0 / rc_lookahead=60 / rc=crf / mbtree=1 / crf=15.0 / qcomp=0.60 / qpmin=0 / qpmax=69 / qpstep=4 / ip_ratio=1.40 / aq=1:1.00
Language : English
Default : Yes
Forced : No

Audio
ID : 2
Format : AC-3
Format/Info : Audio Coding 3
Mode extension : CM (complete main)
Format settings, Endianness : Big
Codec ID : A_AC3
Duration : 59mn 11s
Bit rate mode : Constant
Bit rate : 448 Kbps
Channel(s) : 2 channels
Channel positions : Front: L R
Sampling rate : 48.0 KHz
Frame rate : 31.250 fps (1536 spf)
Compression mode : Lossy
Stream size : 190 MiB (13%)
Default : Yes
Forced : No

Menu
00:00:00.000 : en:Intro / Undead
00:06:03.000 : en:Sell Your Soul
00:09:38.000 : en:Faking The Folk (Intermission)
00:11:17.000 : en:Bottle And A Gun
00:14:40.000 : en:What's In a Name (Intermission)
00:16:09.000 : en:California
00:21:51.500 : en:First Time (Intermission)
00:24:55.000 : en:No Other Place
00:28:20.500 : en:City
00:31:52.000 : en:Favourite (Intermission)
00:34:10.500 : en:Paradise Lost
00:38:22.500 : en:Black Dahlia
00:44:20.000 : en:Young
00:47:42.500 : en:I think I Just Puked My Soul Out (Intermission)
00:50:14.500 : en:Everywhere I Go
00:54:33.000 : en:Lovin' da Kurlzz (Intermission)
00:55:04.000 : en:No. 5

Thanks to the original uploader
Download link:


Links are Interchangeable - No Password - Single Extraction
Direct Download


Tags: Hollywood, Undead, Desperate, Measures, DVDRip

Hollywood Undead - Desperate Measures (2009) [DVDRip] Fast Download via Rapidshare Hotfile Fileserve Filesonic Megaupload, Hollywood Undead - Desperate Measures (2009) [DVDRip] Torrents and Emule Download or anything related.
Dear visitor, you went to website as unregistered user.
We encourage you to Register or Login to website under your name.
Information
Members of Guest cannot leave comments.