Sara Evans - Stagecoach - California's Country Music Festival (2015) [HDTV 1080i]

Category: Music | Comment: 0

Download Now

http://s2.1pic.org/files/2016/08/10/e30c0ee97d102c2d30d3.jpg

Sara Evans - Stagecoach - California's Country Music Festival (2015)
HDTV 1080i | TS | MPEG2 Video 1920x1080 29.97fps 14.5 Mbps | Dolby AC3 48000Hz 6ch 384kbps
Country | Length: 00:48:49 | 5.35 GB

Sara Lynn Evans (pronounced /ˈsɛərə/; born February 5, 1971) is an American country music singer and songwriter. For her entire career, she has been signed to RCA Nashville.

Evans has released seven studio albums: Three Chords and the Truth (1997), No Place That Far (1998), Born to Fly (2000), Restless (2003), Real Fine Place (2005), Stronger (2011), Slow Me Down (2014), plus one Christmas album, At Christmas (2014). Of her albums, Born to Fly is her best-selling, with a double-platinum certification from the Recording Industry Association of America (RIAA) for shipments of two million copies. She has charted more than 20 singles on the Billboard Hot Country Songs charts; while none of the singles from her debut album made Top 40 there, she had her first major hit in late 1998-early 1999 with "No Place That Far", the second single from the album of the same name, which went to No. 1. Four additional singles have reached No. 1 as well: "Born to Fly" (2000-2001), "Suds in the Bucket" (2004), "A Real Fine Place to Start" (2005), and "A Little Bit Stronger" (2010-2011), plus four more that reached Top 10. Several of her singles have also crossed over to the Billboard Hot 100, where she has seven Top 40 entries. Evans has also won one award each from Billboard, the Academy of Country Music, Country Music Association, Broadcast Music Incorporated (BMI), and a Dove Award.


http://s2.1pic.org/files/2016/08/10/28c74c8ba6a727e6fb26.jpg


http://s2.1pic.org/files/2016/08/10/d294bf87a2b49db50177.jpg


http://s2.1pic.org/files/2016/08/10/88b1b17b80f367905b54.jpg


http://s2.1pic.org/files/2016/08/10/3f36f4304a119017ecd1.jpg


http://s2.1pic.org/files/2016/08/10/bcfda9963643e3dc6f15.jpg


Tracklist
01. Born to fly
02. As if
03. Perfect
04. I keep looking
05. Slow me down
06. Coal mine
07. A Little Bit Stronger
08. My Heart Can't Tell You No
09. Suds In The Bucket
10. I Could Not Ask For More
11. A Real Fine Place To Start

MediaInfo


General
ID : 1 (0x1)
Complete name : L:\Sara Evans - Stagecoach - California's Country Music Festival 2015.ts
Format : MPEG-TS
File size : 5.35 GiB
Duration : 48mn 49s
Overall bit rate mode : Variable
Overall bit rate : 15.7 Mbps

Video
ID : 6081 (0x17C1)
Menu ID : 1 (0x1)
Format : MPEG Video
Format version : Version 2
Format profile : [email protected]
Format settings, BVOP : Yes
Format settings, Matrix : Custom
Format settings, GOP : Variable
Format settings, picture struc : Frame
Codec ID : 2
Duration : 48mn 49s
Bit rate mode : Variable
Bit rate : 14.5 Mbps
Maximum bit rate : 18.0 Mbps
Width : 1 920 pixels
Height : 1 080 pixels
Display aspect ratio : 16:9
Frame rate : 29.970 fps
Color space : YUV
Chroma subsampling : 4:2:0
Bit depth : 8 bits
Scan type : Interlaced
Scan order : Top Field First
Compression mode : Lossy
Bits/(Pixel*Frame) : 0.234
Time code of first frame : 00:00:00;00
Time code source : Group of pictures header
Stream size : 4.96 GiB (93%)

Audio
ID : 6082 (0x17C2)
Menu ID : 1 (0x1)
Format : AC-3
Format/Info : Audio Coding 3
Mode extension : CM (complete main)
Format settings, Endianness : Big
Codec ID : 129
Duration : 48mn 49s
Bit rate mode : Constant
Bit rate : 384 Kbps
Channel(s) : 6 channels
Channel positions : Front: L C R, Side: L R, LFE
Sampling rate : 48.0 KHz
Bit depth : 16 bits
Compression mode : Lossy
Delay relative to video : 10ms
Stream size : 134 MiB (2%)
Language : English

Thanks to the original uploader
Download link:

filejoker_net:
https://filejoker.net/i4a37fdivdcy/uz2b2.Sara.Evans..Stagecoach..Californias.Country.Music.Festival.2015.HDTV.1080i.part1.rar
https://filejoker.net/qbdpvb8zmv2x/uz2b2.Sara.Evans..Stagecoach..Californias.Country.Music.Festival.2015.HDTV.1080i.part2.rar
https://filejoker.net/xsq6b79q27xl/uz2b2.Sara.Evans..Stagecoach..Californias.Country.Music.Festival.2015.HDTV.1080i.part3.rar
https://filejoker.net/ilcwcapfgj80/uz2b2.Sara.Evans..Stagecoach..Californias.Country.Music.Festival.2015.HDTV.1080i.part4.rar
https://filejoker.net/ed18n3ywek29/uz2b2.Sara.Evans..Stagecoach..Californias.Country.Music.Festival.2015.HDTV.1080i.part5.rar
https://filejoker.net/f2e56wyvcjtv/uz2b2.Sara.Evans..Stagecoach..Californias.Country.Music.Festival.2015.HDTV.1080i.part5.rar
https://filejoker.net/mgol7w9gywm3/uz2b2.Sara.Evans..Stagecoach..Californias.Country.Music.Festival.2015.HDTV.1080i.part6.rar
https://filejoker.net/p2ub80se7wuh/uz2b2.Sara.Evans..Stagecoach..Californias.Country.Music.Festival.2015.HDTV.1080i.part6.rar

nitroflare_com:
http://nitroflare.com/view/0C4D3C3892B817A/uz2b2.Sara.Evans..Stagecoach..Californias.Country.Music.Festival.2015.HDTV.1080i.part1.rar
http://nitroflare.com/view/ED38B9710673194/uz2b2.Sara.Evans..Stagecoach..Californias.Country.Music.Festival.2015.HDTV.1080i.part2.rar
http://nitroflare.com/view/FCC465FF60CE7B0/uz2b2.Sara.Evans..Stagecoach..Californias.Country.Music.Festival.2015.HDTV.1080i.part3.rar
http://nitroflare.com/view/5BB1D2253584F2B/uz2b2.Sara.Evans..Stagecoach..Californias.Country.Music.Festival.2015.HDTV.1080i.part4.rar
http://nitroflare.com/view/ECE84FE3131A753/uz2b2.Sara.Evans..Stagecoach..Californias.Country.Music.Festival.2015.HDTV.1080i.part5.rar
http://nitroflare.com/view/B5B47D9C35B6894/uz2b2.Sara.Evans..Stagecoach..Californias.Country.Music.Festival.2015.HDTV.1080i.part6.rar

bytewhale_com:
https://bytewhale.com/1qr9jilnejx2/uz2b2.Sara.Evans..Stagecoach..Californias.Country.Music.Festival.2015.HDTV.1080i.part1.rar
https://bytewhale.com/03fthz2y429j/uz2b2.Sara.Evans..Stagecoach..Californias.Country.Music.Festival.2015.HDTV.1080i.part2.rar
https://bytewhale.com/tz1e2cf9e29y/uz2b2.Sara.Evans..Stagecoach..Californias.Country.Music.Festival.2015.HDTV.1080i.part3.rar
https://bytewhale.com/o7ctw12rzq8h/uz2b2.Sara.Evans..Stagecoach..Californias.Country.Music.Festival.2015.HDTV.1080i.part4.rar
https://bytewhale.com/gnuuqjdxi9t8/uz2b2.Sara.Evans..Stagecoach..Californias.Country.Music.Festival.2015.HDTV.1080i.part5.rar
https://bytewhale.com/hah6rxl56vuz/uz2b2.Sara.Evans..Stagecoach..Californias.Country.Music.Festival.2015.HDTV.1080i.part6.rar

Links are Interchangeable - No Password - Single Extraction
Direct Download


Tags: Stagecoach, California, Country, Festival

Sara Evans - Stagecoach - California's Country Music Festival (2015) [HDTV 1080i] Fast Download via Rapidshare Hotfile Fileserve Filesonic Megaupload, Sara Evans - Stagecoach - California's Country Music Festival (2015) [HDTV 1080i] Torrents and Emule Download or anything related.
Dear visitor, you went to website as unregistered user.
We encourage you to Register or Login to website under your name.
Information
Members of Guest cannot leave comments.