Petey Pablo - Still Writing In My Diary: 2nd Entry (2004)

Category: Music | Comment: 0

Download Now

http://s2.1pic.org/files/2016/08/19/682cb932d979170ed594.jpg

Petey Pablo - Still Writing In My Diary: 2nd Entry (2004)
EAC Rip | FLAC with CUE and log | scans | 528 mb
MP3 CBR 320kbps | RAR | 191 mb
Genre: hip-hop, rap

True to its title, Still Writing In My Diary: 2nd Entry is the second album by rapper Moses Barrett, who is better known under the pseudonym Petey Pablo. Released in 2004, this was his last effort before vanishing from the scene.
During the nearly three-year interval separating Still Writing in My Diary: 2nd Entry from its predecessor, no one quite knew what would come of Petey Pablo. He had come out of the gate in 2001 with one of the year's most memorable summer anthems, "Raise Up." That Timbaland production made Pablo an overnight celebrity, even before the release of his debut album, Diary of a Sinner: 1st Entry. And that was it - the album didn't spin off any sizable follow-up singles and fizzled quickly once "Raise Up" faded away by wintertime. It didn't help, either, that Pablo made very few guest appearances thereafter. So when Jive finally scheduled his sophomore album, Still Writing in My Diary, for the holiday season of 2002 - and then pushed back the release date indefinitely - the North Carolina rapper's future didn't look so bright. Jive finally did release the album in spring 2004, however, and the wait was ultimately worthwhile, for Still Writing in My Diary is a strong album that banished the one-hit wonder albatross that had hovered over Pablo since his breakout success three years earlier. The 70-minute album jumps off with front-loaded highlights (the sexually explicit lead single, "Freek-A-Leek"), hits its stride with a relatively daring midsection (some out-there Timbaland productions), and is capped off with a three-song finale of earnestness ("Roll Off," "Be Country," "He Spoke to Me"). Many of the highlights had been outsourced to select hitmakers: Mannie Fresh ("Did You Miss Me"), Lil Jon ("Jam Y'All," "Freek-A-Leek," "U Don't Want Dat"), Timbaland ("Get On Dis Motorcycle," "Break Me Off"), and Kanye West ("I Swear"). The remainder of the album is less hit-songy but not necessarily less appealing - the less commercial the song, generally the more sincere its lyrical content and the more unique its production. Pablo even produces a few tracks himself ("Let's Roc," "Stick 'Em Up"). 2nd Entry overall is a surefooted step forward from Pablo's first go-round and should elevate the promising rapper to the status he deserves - among the South's leading MCs, that is, commercially as well as artistically.


http://s2.1pic.org/files/2016/08/19/317c1615f07b3e5e8cc6.jpg

01. Part 2
02. Did You Miss Me
03. Jam Y'all
04. Freek-A-Leek
05. O It's On
06. Let's Roc
07. Stick 'Em Up
08. Get On Dis Motorcycle
09. Break Me Off
10. Boy's Bathroom
11. U Don't Want Dat
12. What You Know About It
13. I Swear
14. Roll Off
15. Be Country
16. He Spoke To Me
17. Vibrate

--
GUESTS:
Baby (track 2)
TQ (track 2)
Young Buck (track 5)
Bubby Sparxxx (track 8)
Missy Elliott (track 9)
Jennie Arnau (track 10)
Keith Sengbusch (track 10)
Lil' Jon (track 11)
Khaliq Ibinhamid-Bey (track 16)

Track 1 produced by The Outfit
Track 2 produced by Mannie Fresh
Tracks 3, 4 & 11 produced by Lil' Jon
Track 5 produced by Q
Tracks 6 & 7 produced by Petey Pablo
Tracks 8 & 9 produced by Timbaland
Track 10 produced by T&J Productions
Track 12 produced by Honky Kong
Track 13 produced by Kanye West
Track 14 produced by Focus
Track 15 produced by Sholar
Track 16 produced by Warryn "Baby Dub" Campbell

Mastered by Tom Coyne at Sterling Sound, NYC


http://s2.1pic.org/files/2016/08/19/4968da3c97bfe64af4d4.jpg


EAC Log


EAC extraction logfile from 15. July 2007, 7:30 for CD
Petey Pablo / Still Writing In My Diary: 2nd Entry

Used drive : LITE-ON DVDRW SOHW-1633S Adapter: 0 ID: 0
Read mode : Secure with NO C2, accurate stream, disable cache
Read offset correction : 12
Overread into Lead-In and Lead-Out : No

Used output format : Internal WAV Routines
44.100 Hz; 16 Bit; Stereo

Other options :
Fill up missing offset samples with silence : Yes
Delete leading and trailing silent blocks : No
Installed external ASPI interface

Track 1
Filename D:\FLAC\Petey Pablo - Still Writing In My Diary, 2nd Entry (2004) [FLAC]\01 - Part 2.wav

Pre-gap length 0:00:02.00

Peak level 100.0 %
Track quality 100.0 %
Test CRC C9CFC406
Copy CRC C9CFC406
Copy OK

Track 2
Filename D:\FLAC\Petey Pablo - Still Writing In My Diary, 2nd Entry (2004) [FLAC]\02 - Did You Miss Me.wav

Peak level 99.8 %
Track quality 100.0 %
Test CRC D6A4BE0F
Copy CRC D6A4BE0F
Copy OK

Track 3
Filename D:\FLAC\Petey Pablo - Still Writing In My Diary, 2nd Entry (2004) [FLAC]\03 - Jam Y'all.wav

Peak level 99.8 %
Track quality 100.0 %
Test CRC 671B5050
Copy CRC 671B5050
Copy OK

Track 4
Filename D:\FLAC\Petey Pablo - Still Writing In My Diary, 2nd Entry (2004) [FLAC]\04 - Freek-A-Leek.wav

Peak level 100.0 %
Track quality 100.0 %
Test CRC 6F2753AE
Copy CRC 6F2753AE
Copy OK

Track 5
Filename D:\FLAC\Petey Pablo - Still Writing In My Diary, 2nd Entry (2004) [FLAC]\05 - O It's On.wav

Peak level 99.9 %
Track quality 100.0 %
Test CRC D3A290D7
Copy CRC D3A290D7
Copy OK

Track 6
Filename D:\FLAC\Petey Pablo - Still Writing In My Diary, 2nd Entry (2004) [FLAC]\06 - Let's Roc.wav

Peak level 99.8 %
Track quality 100.0 %
Test CRC F13A3172
Copy CRC F13A3172
Copy OK

Track 7
Filename D:\FLAC\Petey Pablo - Still Writing In My Diary, 2nd Entry (2004) [FLAC]\07 - Stick 'Em Up.wav

Peak level 100.0 %
Track quality 100.0 %
Test CRC 17FDCEA7
Copy CRC 17FDCEA7
Copy OK

Track 8
Filename D:\FLAC\Petey Pablo - Still Writing In My Diary, 2nd Entry (2004) [FLAC]\08 - Get On Dis Motorcycle.wav

Peak level 99.8 %
Track quality 100.0 %
Test CRC 420F03A1
Copy CRC 420F03A1
Copy OK

Track 9
Filename D:\FLAC\Petey Pablo - Still Writing In My Diary, 2nd Entry (2004) [FLAC]\09 - Break Me Off.wav

Peak level 100.0 %
Track quality 100.0 %
Test CRC 73BE774C
Copy CRC 73BE774C
Copy OK

Track 10
Filename D:\FLAC\Petey Pablo - Still Writing In My Diary, 2nd Entry (2004) [FLAC]\10 - Boy's Bathroom.wav

Peak level 100.0 %
Track quality 100.0 %
Test CRC 7A1F3762
Copy CRC 7A1F3762
Copy OK

Track 11
Filename D:\FLAC\Petey Pablo - Still Writing In My Diary, 2nd Entry (2004) [FLAC]\11 - U Don't Want Dat.wav

Peak level 100.0 %
Track quality 100.0 %
Test CRC 398F2B70
Copy CRC 398F2B70
Copy OK

Track 12
Filename D:\FLAC\Petey Pablo - Still Writing In My Diary, 2nd Entry (2004) [FLAC]\12 - What You Know About It.wav

Pre-gap length 0:00:00.28

Peak level 99.8 %
Track quality 100.0 %
Test CRC C2B790B9
Copy CRC C2B790B9
Copy OK

Track 13
Filename D:\FLAC\Petey Pablo - Still Writing In My Diary, 2nd Entry (2004) [FLAC]\13 - I Swear.wav

Peak level 100.0 %
Track quality 100.0 %
Test CRC A7743048
Copy CRC A7743048
Copy OK

Track 14
Filename D:\FLAC\Petey Pablo - Still Writing In My Diary, 2nd Entry (2004) [FLAC]\14 - Roll Off.wav

Peak level 100.0 %
Track quality 100.0 %
Test CRC 4AFCEE5E
Copy CRC 4AFCEE5E
Copy OK

Track 15
Filename D:\FLAC\Petey Pablo - Still Writing In My Diary, 2nd Entry (2004) [FLAC]\15 - Be Country.wav

Peak level 99.8 %
Track quality 100.0 %
Test CRC 9F3BEFDE
Copy CRC 9F3BEFDE
Copy OK

Track 16
Filename D:\FLAC\Petey Pablo - Still Writing In My Diary, 2nd Entry (2004) [FLAC]\16 - He Spoke To Me.wav

Peak level 99.9 %
Track quality 100.0 %
Test CRC 76029019
Copy CRC 76029019
Copy OK

Track 17
Filename D:\FLAC\Petey Pablo - Still Writing In My Diary, 2nd Entry (2004) [FLAC]\17 - Vibrate.wav

Pre-gap length 0:00:02.77

Peak level 100.0 %
Track quality 100.0 %
Test CRC EB6CD22B
Copy CRC EB6CD22B
Copy OK

No errors occured

End of status report
Download link:


Links are Interchangeable - No Password - Single Extraction
Direct Download


Tags: Writing

Petey Pablo - Still Writing In My Diary: 2nd Entry (2004) Fast Download via Rapidshare Hotfile Fileserve Filesonic Megaupload, Petey Pablo - Still Writing In My Diary: 2nd Entry (2004) Torrents and Emule Download or anything related.
Dear visitor, you went to website as unregistered user.
We encourage you to Register or Login to website under your name.
Information
Members of Guest cannot leave comments.