Rachel Z - Love Is The Power (1998)

Category: Music | Comment: 0

Download Now

http://s2.1pic.org/files/2016/08/19/fa461c0fcd7f956447f6.jpg

Rachel Z - Love Is The Power (1998)
EAC Rip | FLAC with CUE and log | scans | 332 mb
MP3 CBR 320kbps | RAR | 132 mb
Genre: jazz, smooth jazz

Love Is The Power is the 1998 CD by Rachel Nicolazzo, who is known under the name Rachel Z. Released on the GRP label, she would marry Omar Hakim and is now known as Rachel Z Hakim.
For most artists, an album title like Love is the Power might be a cue to create songs reflecting the complexities, joys and pains of finite, human love. But Rachel Z, one of the most exciting and stylistically diverse keyboardists in contemporary jazz, has a more vast, eternal kind of love in mind. Not surprisingly for an artist with such eclectic tastes, Rachel Z tackles the musical side of her spiritual growth with a pointed shift from the acoustic jazz trio approach of her previous album A Room of One's Own to a funkier, modern electronic mindset focused on the playfulness and eloquence of the acoustic piano. From the choice to do a lively reworking of Alanis Morrisette's "Head Over Feet" to blending hip-hop grooves with a soaring vocal chant and chimes on the hypnotic and exotic "Like the Rivers Flow," Z's focus is applying her own spiritual transformation in the wake of her divorce to the universal love which connects us all. Other highlights on 1998's best smooth jazz album are "Tears 4 Your Love," a cool funk jam out of the Miles Davis tradition pairing her with Chris Botti's sassy trumpet; and the classically influenced "Walk on Water," which builds a simple, sax driven melody by Najee over a heartbeat-like rhythmic thump. She's better known for her fusion associations, but smooth jazz could use more inventive infusions like this.


http://s2.1pic.org/files/2016/08/19/c251b5c6cfeb4d737fe3.jpg

01. Tears 4 Your Love
02. Walking On Water
03. Love Is The Power
04. Bodhisattva
05. Head Over Feet
06. With U Beside Me
07. Like The Rivers Flow
08. Show Myself 2 U
09. Peace Of My Heart
10. Little House

--
Rachel Z-piano, keyboards, vocals
David Mann-keyboards, soprano saxophone, drum programming
Larry Saltzman-acoustic guitar, electric guitar
Michael Bearden-keboards, drum programming, synth bass
Jimmy Earl-bass
Bashiri Johnson-bongos, percussion
Mick Moroch-acoustic guitars

Chris Botti-trumpet, flugelhorn (track 1)
Marc Antoine-acoustic guitar (tracks 3, 7, 9)
Najee-soprano saxophone (track 2)
Maysa Leak-lead and background vocals (track 8)
Chris Parks-sampling (track 8)

Produced and arranged by Michael Rearden, except tracks 1 and 5 which were produced by David Manne
Recorded by Michael Rearden, Wayne Warneke, John Pace, and Don Gellert at Mykee Studios, Wayne's World, Chunk King Studios, and Avatar Studios
Tracks 1 and 5 recorded at DDM Studio and Avatar Studios
Mixed by Don Gellert and Michael Rearden at Avatar Studios, NYC
Tracks 1 and 5 mixed by Don Gellert at Avatar Studios, NYC
Engineered by Wayne Warneke, John Pace, and Don Gellert

Mastered by Joe Palmaccio at Sterling Sound, NY


http://s2.1pic.org/files/2016/08/19/0271137945d52d53bfc5.jpg


EAC Log


EAC extraction logfile from 13. June 2007, 7:33 for CD
Rachel Z / Love Is The Power

Used drive : LITE-ON DVDRW SOHW-1633S Adapter: 0 ID: 0
Read mode : Secure with NO C2, accurate stream, disable cache
Read offset correction : 12
Overread into Lead-In and Lead-Out : No

Used output format : Internal WAV Routines
44.100 Hz; 16 Bit; Stereo

Other options :
Fill up missing offset samples with silence : Yes
Delete leading and trailing silent blocks : No
Installed external ASPI interface

Track 1
Filename D:\FLAC\Rachel Z - Love Is The Power (1998) [FLAC]\01 - Tears 4 Your Love.wav

Pre-gap length 0:00:02.00

Peak level 100.0 %
Track quality 100.0 %
Test CRC 6C0482BA
Copy CRC 6C0482BA
Copy OK

Track 2
Filename D:\FLAC\Rachel Z - Love Is The Power (1998) [FLAC]\02 - Walking On Water.wav

Peak level 99.8 %
Track quality 100.0 %
Test CRC F3DF38BA
Copy CRC F3DF38BA
Copy OK

Track 3
Filename D:\FLAC\Rachel Z - Love Is The Power (1998) [FLAC]\03 - Love Is The Power.wav

Peak level 97.6 %
Track quality 100.0 %
Test CRC 5B258AF3
Copy CRC 5B258AF3
Copy OK

Track 4
Filename D:\FLAC\Rachel Z - Love Is The Power (1998) [FLAC]\04 - Bodhisattva.wav

Peak level 100.0 %
Track quality 100.0 %
Test CRC 52644523
Copy CRC 52644523
Copy OK

Track 5
Filename D:\FLAC\Rachel Z - Love Is The Power (1998) [FLAC]\05 - Head Over Feet.wav

Peak level 99.8 %
Track quality 100.0 %
Test CRC 6F781BDE
Copy CRC 6F781BDE
Copy OK

Track 6
Filename D:\FLAC\Rachel Z - Love Is The Power (1998) [FLAC]\06 - With U Beside Me.wav

Peak level 99.8 %
Track quality 100.0 %
Test CRC 4FA13F95
Copy CRC 4FA13F95
Copy OK

Track 7
Filename D:\FLAC\Rachel Z - Love Is The Power (1998) [FLAC]\07 - Like The Rivers Flow.wav

Peak level 97.6 %
Track quality 100.0 %
Test CRC 04C36E02
Copy CRC 04C36E02
Copy OK

Track 8
Filename D:\FLAC\Rachel Z - Love Is The Power (1998) [FLAC]\08 - Show Myself 2 U.wav

Peak level 99.8 %
Track quality 100.0 %
Test CRC 8B7405A2
Copy CRC 8B7405A2
Copy OK

Track 9
Filename D:\FLAC\Rachel Z - Love Is The Power (1998) [FLAC]\09 - Peace Of My Heart.wav

Peak level 99.8 %
Track quality 99.9 %
Test CRC 31A3F7FD
Copy CRC 31A3F7FD
Copy OK

Track 10
Filename D:\FLAC\Rachel Z - Love Is The Power (1998) [FLAC]\10 - Little House.wav

Peak level 97.6 %
Track quality 100.0 %
Test CRC 60D24FB6
Copy CRC 60D24FB6
Copy OK

No errors occured

End of status report



http://s2.1pic.org/files/2016/08/19/f1ba49d943b87e984c0c.jpg

Download link:


Links are Interchangeable - No Password - Single Extraction
Direct Download


Tags: Rachel

Rachel Z - Love Is The Power (1998) Fast Download via Rapidshare Hotfile Fileserve Filesonic Megaupload, Rachel Z - Love Is The Power (1998) Torrents and Emule Download or anything related.
Dear visitor, you went to website as unregistered user.
We encourage you to Register or Login to website under your name.
Information
Members of Guest cannot leave comments.