Rammstein - In Amerika (2015)

Category: Music | Comment: 0

Download Now

http://s2.1pic.org/files/2016/09/02/fb2a8f894161f40e7eeb.jpg

Rammstein - In Amerika (2015)
2xBlu-Ray: MPEG-4 AVC Video, 23667 kbps, 1080p, 24 fps, 16:9, High Profile 4.1
DTS-HD Master Audio 2.0, 48kHz, 2397kbps, 24-bit (DTS Core: 2.0, 48kHz, 1509kbps, 24-bit)
DTS-HD High-Res Audio 5.1, 48kHz, 5122 kbps, 24-bit (DTS Core: 5.1, 48kHz, 1509kbps, 24-bit)
Industrial | 01:41:55 + 02:23:45 | ~ 32.81 + 35.85 Gb

Live performance by the German industrial metal group, recorded at New York's Madison Square Garden in 2010. The band play a selection of tracks including 'Benzin', 'Du Hast', 'Links 2, 3, 4' and 'Sonne'...

Tracklist BD1:

01. Rammlied
02. B*********
03. Waidmanns Heil
04. Keine Lust
05. Weisses Fleisch
06. Feuer Frei!
07. Weiner Blut
08. Fruhling in Paris
09. Ich Tu Dir Weh
10. Du Reichst So Gut
11. Benzin
12. Links 2 3 4
13. Du Hast
14. Pussy
15. Sonne
16. Haifisch
17. Ich Will
18. Engel

MediaInfo


General
Complete name : G:\UP\Mix\Rammstein - In Amerika - BD\BD1
Format : Blu-ray movie
Duration : 1h 41mn
Overall bit rate mode : Variable
Overall bit rate : 0 bps

Video
ID : 4113 (0x1011)
Menu ID : 1 (0x1)
Format : AVC
Format/Info : Advanced Video Codec
Format profile : [email protected]
Format settings, CABAC : Yes
Format settings, ReFrames : 2 frames
Codec ID : 27
Duration : 1h 41mn
Bit rate mode : Variable
Maximum bit rate : 35.2 Mbps
Width : 1 920 pixels
Height : 1 080 pixels
Display aspect ratio : 16:9
Frame rate : 24.000 fps
Color space : YUV
Chroma subsampling : 4:2:0
Bit depth : 8 bits
format_identifier : HDMV
Source : 00001.m2ts

Audio #1
ID : 4352 (0x1100)
Menu ID : 1 (0x1)
Format : DTS
Format/Info : Digital Theater Systems
Format profile : MA / Core
Mode : 16
Format settings, Endianness : Big
Muxing mode : Stream extension
Codec ID : 134
Duration : 1h 41mn
Bit rate mode : Variable
Bit rate : Unknown / 1 509 Kbps
Channel(s) : 2 channels
Channel positions : Front: L R
Sampling rate : 48.0 KHz
Bit depth : 24 bits
Compression mode : Lossless / Lossy
Language : German
Source : 00001.m2ts

Audio #2
ID : 4353 (0x1101)
Menu ID : 1 (0x1)
Format : DTS
Format/Info : Digital Theater Systems
Format profile : MA / Core
Mode : 16
Format settings, Endianness : Big
Muxing mode : Stream extension
Codec ID : 134
Duration : 1h 41mn
Bit rate mode : Variable
Bit rate : Unknown / 1 509 Kbps
Channel(s) : 6 channels
Channel positions : Front: L C R, Side: L R, LFE
Sampling rate : 48.0 KHz
Bit depth : 24 bits
Compression mode : Lossless / Lossy
Language : German
Source : 00001.m2ts

Menu
00:00:00.000 : Chapter 1

General
Complete name : G:\UP\Mix\Rammstein - In Amerika - BD\BD1\CERTIFICATE\BACKUP\id.bdmv
File size : 104 Bytes

General
Complete name : G:\UP\Mix\Rammstein - In Amerika - BD\BD1\CERTIFICATE\id.bdmv
File size : 104 Bytes


Tracklist BD2:

01. Documentary: Rammstein In Amerika
02. Making Of Liebe Ist Für Alle Da

MediaInfo


General
Complete name : G:\UP\Mix\Rammstein - In Amerika - BD\BD2
Format : Blu-ray movie
Duration : 2h 2mn
Overall bit rate mode : Variable
Overall bit rate : 0 bps

Video
ID : 4113 (0x1011)
Menu ID : 1 (0x1)
Format : AVC
Format/Info : Advanced Video Codec
Format profile : [email protected]
Format settings, CABAC : Yes
Format settings, ReFrames : 2 frames
Format settings, GOP : M=1, N=5
Codec ID : 27
Duration : 2h 2mn
Bit rate mode : Variable
Maximum bit rate : 24.2 Mbps
Width : 1 920 pixels
Height : 1 080 pixels
Display aspect ratio : 16:9
Frame rate : 24.000 fps
Color space : YUV
Chroma subsampling : 4:2:0
Bit depth : 8 bits
format_identifier : HDMV
Source : 00001.m2ts

Audio #1
ID : 4352 (0x1100)
Menu ID : 1 (0x1)
Format : DTS
Format/Info : Digital Theater Systems
Format profile : MA / Core
Mode : 16
Format settings, Endianness : Big
Muxing mode : Stream extension
Codec ID : 134
Duration : 2h 2mn
Bit rate mode : Variable
Bit rate : Unknown / 255 Kbps
Channel(s) : 2 channels
Channel positions : Front: L R
Sampling rate : 48.0 KHz
Bit depth : 24 bits
Compression mode : Lossless / Lossy
Language : German
Source : 00001.m2ts

Audio #2
ID : 4353 (0x1101)
Menu ID : 1 (0x1)
Format : DTS
Format/Info : Digital Theater Systems
Format profile : HRA / Core
Mode : 16
Format settings, Endianness : Big
Muxing mode : Stream extension
Codec ID : 133
Duration : 2h 2mn
Bit rate mode : Constant
Bit rate : 2 046 Kbps / 1 509 Kbps
Channel(s) : 6 channels
Channel positions : Front: L C R, Side: L R, LFE
Sampling rate : 48.0 KHz
Bit depth : 24 bits
Compression mode : Lossy
Stream size : 1.75 GiB (6%)
Language : German
Source : 00001.m2ts

Audio #3
ID : 4354 (0x1102)
Menu ID : 1 (0x1)
Format : DTS
Format/Info : Digital Theater Systems
Format profile : MA / Core
Mode : 16
Format settings, Endianness : Big
Muxing mode : Stream extension
Codec ID : 134
Duration : 2h 2mn
Bit rate mode : Variable
Bit rate : Unknown / 255 Kbps
Channel(s) : 2 channels
Channel positions : Front: L R
Sampling rate : 48.0 KHz
Bit depth : 24 bits
Compression mode : Lossless / Lossy
Language : English
Source : 00001.m2ts

Audio #4
ID : 4355 (0x1103)
Menu ID : 1 (0x1)
Format : DTS
Format/Info : Digital Theater Systems
Format profile : HRA / Core
Mode : 16
Format settings, Endianness : Big
Muxing mode : Stream extension
Codec ID : 133
Duration : 2h 2mn
Bit rate mode : Constant
Bit rate : 2 046 Kbps / 1 509 Kbps
Channel(s) : 6 channels
Channel positions : Front: L C R, Side: L R, LFE
Sampling rate : 48.0 KHz
Bit depth : 24 bits
Compression mode : Lossy
Stream size : 1.75 GiB (6%)
Language : English
Source : 00001.m2ts

Text #1
ID : 4608 (0x1200)
Menu ID : 1 (0x1)
Format : PGS
Codec ID : 144
Duration : 2h 2mn
Language : German
Source : 00001.m2ts

Text #2
ID : 4609 (0x1201)
Menu ID : 1 (0x1)
Format : PGS
Codec ID : 144
Duration : 2h 2mn
Language : German
Source : 00001.m2ts

Text #3
ID : 4610 (0x1202)
Menu ID : 1 (0x1)
Format : PGS
Codec ID : 144
Duration : 2h 2mn
Language : English
Source : 00001.m2ts

Text #4
ID : 4611 (0x1203)
Menu ID : 1 (0x1)
Format : PGS
Codec ID : 144
Duration : 2h 2mn
Language : English
Source : 00001.m2ts

Text #5
ID : 4612 (0x1204)
Menu ID : 1 (0x1)
Format : PGS
Codec ID : 144
Duration : 2h 2mn
Language : Spanish
Source : 00001.m2ts

Text #6
ID : 4613 (0x1205)
Menu ID : 1 (0x1)
Format : PGS
Codec ID : 144
Duration : 2h 2mn
Language : French
Source : 00001.m2ts

Text #7
ID : 4614 (0x1206)
Menu ID : 1 (0x1)
Format : PGS
Codec ID : 144
Duration : 2h 2mn
Language : Japanese
Source : 00001.m2ts

Text #8
ID : 4615 (0x1207)
Menu ID : 1 (0x1)
Format : PGS
Codec ID : 144
Duration : 2h 2mn
Language : Portuguese
Source : 00001.m2ts

Text #9
ID : 4616 (0x1208)
Menu ID : 1 (0x1)
Format : PGS
Codec ID : 144
Duration : 2h 2mn
Language : Russian
Source : 00001.m2ts

Menu
00:00:00.000 : Chapter 1

General
Complete name : G:\UP\Mix\Rammstein - In Amerika - BD\BD2\CERTIFICATE\BACKUP\id.bdmv
File size : 104 Bytes

General
Complete name : G:\UP\Mix\Rammstein - In Amerika - BD\BD2\CERTIFICATE\id.bdmv
File size : 104 Bytes



http://s2.1pic.org/files/2016/09/02/3750af123b89e874b294.jpg

Download link:


Links are Interchangeable - No Password - Single Extraction
Direct Download


Tags: Rammstein, Amerika

Rammstein - In Amerika (2015) Fast Download via Rapidshare Hotfile Fileserve Filesonic Megaupload, Rammstein - In Amerika (2015) Torrents and Emule Download or anything related.
Dear visitor, you went to website as unregistered user.
We encourage you to Register or Login to website under your name.
Information
Members of Guest cannot leave comments.