InfiniteSkills - Mastering SolidWorks 2015 - Rendering and Visualization

Category: Tutorial | Comment: 0

Download Now

InfiniteSkills - Mastering SolidWorks 2015 - Rendering and Visualization

InfiniteSkills - Mastering SolidWorks 2015 - Rendering and Visualization
MP4 | AVC 310kbps | English | 1280x720 | 15fps | 3 hours | AAC mono 64kbps | 619 MB
Genre: Video Training

In this project-based Mastering SolidWorks 2015 - Rendering and Visualization video tutorial series, you'll quickly have relevant skills for real-world applications.
Follow along with our expert instructor in this training course to get: Concise, informative and broadcast-quality Mastering SolidWorks 2015 - Rendering and Visualization training videos delivered to your desktop.
The ability to learn at your own pace with our intuitive, easy-to-use interface
A quick grasp of even the most complex Mastering SolidWorks 2015 - Rendering and Visualization subjects because they're broken into simple, easy to follow tutorial videos
Practical working files further enhance the learning process and provide a degree of retention that is unmatched by any other form of Mastering SolidWorks 2015 - Rendering and Visualization tutorial, online or offline... so you'll know the exact steps for your own projects.

01. Introduction
02. Getting Started
03. Views, Cameras And Perspective
04. Materials
05. Configurations, Display States, Section Views And Live Section Planes
06. Realview And Integrated Preview
07. Custom Cameras And Lights
08. Scenes
09. Photoview360
10. Tips And Tricks
11. Conclusion

Format : MPEG-4
Format profile : Base Media / Version 2
Codec ID : mp42
File size : 13.0 MiB
Duration : 4mn 47s
Overall bit rate : 379 Kbps
Encoded date : UTC 2014-11-21 15:18:54
Tagged date : UTC 2014-11-21 20:18:56
Writing application : Sorenson Squeeze
Comment : Encoded by
Video #2
ID : 2
Format : AVC
Format/Info : Advanced Video Codec
Format profile : [email protected]
Format settings, CABAC : Yes
Format settings, ReFrames : 4 frames
Codec ID : avc1
Codec ID/Info : Advanced Video Coding
Duration : 4mn 47s
Bit rate : 310 Kbps
Nominal bit rate : 225 Kbps
Width : 1 280 pixels
Height : 720 pixels
Display aspect ratio : 16:9
Frame rate mode : Constant
Frame rate : 15.000 fps
Color space : YUV
Chroma subsampling : 4:2:0
Bit depth : 8 bits
Scan type : Progressive
Bits/(Pixel*Frame) : 0.022
Stream size : 10.6 MiB (82%)
Writing library : x264 core 129
Encoding settings : cabac=1 / ref=3 / deblock=1:0:0 / analyse=0x1:0x111 / me=hex / subme=7 / psy=1 / psy_rd=1.00:0.00 / mixed_ref=1 / me_range=16 / chroma_me=1 / trellis=1 / 8x8dct=0 / cqm=0 / deadzone=21,11 / fast_pskip=1 / chroma_qp_offset=-2 / threads=6 / lookahead_threads=1 / sliced_threads=0 / nr=0 / decimate=1 / interlaced=0 / bluray_compat=0 / constrained_intra=0 / bframes=3 / b_pyramid=2 / b_adapt=1 / b_bias=0 / direct=1 / weightb=1 / open_gop=0 / weightp=2 / keyint=150 / keyint_min=15 / scenecut=50 / intra_refresh=0 / rc_lookahead=40 / rc=2pass / mbtree=1 / bitrate=225 / ratetol=100.0 / qcomp=0.60 / qpmin=0 / qpmax=69 / qpstep=4 / cplxblur=20.0 / qblur=0.5 / ip_ratio=1.40 / aq=1:1.00
Encoded date : UTC 2014-11-21 15:18:54
Tagged date : UTC 2014-11-21 15:18:54
Audio #1
ID : 1
Format : AAC
Format/Info : Advanced Audio Codec
Format profile : LC
Codec ID : 40
Duration : 4mn 47s
Bit rate mode : Constant
Bit rate : 64.0 Kbps
Channel(s) : 1 channel
Channel positions : Front: C
Sampling rate : 48.0 KHz
Compression mode : Lossy
Stream size : 2.19 MiB (17%)
Encoded date : UTC 2014-11-21 15:18:54
Tagged date : UTC 2014-11-21 15:18:54

InfiniteSkills - Mastering SolidWorks 2015 - Rendering and Visualization

InfiniteSkills - Mastering SolidWorks 2015 - Rendering and Visualization

InfiniteSkills - Mastering SolidWorks 2015 - Rendering and Visualization

No mirrors please


Download Below:
----------------------------------------------
Recommend Purchase Premium Account

----------------------------------------------

RapidGator:
http://rapidgator.net/file/5b1c64c4fb13b73397cb103aaf585e61/avg09.InfiniteSkills..Mastering.SolidWorks.2015..Rendering.and.Visualization.part1.rar.html
http://rapidgator.net/file/5ea47f833b33c9f06c94efe2db6c3b11/avg09.InfiniteSkills..Mastering.SolidWorks.2015..Rendering.and.Visualization.part2.rar.html
http://rapidgator.net/file/54bdb7b292859b7eb7faa9277bd39066/avg09.InfiniteSkills..Mastering.SolidWorks.2015..Rendering.and.Visualization.part3.rar.html
http://rapidgator.net/file/b03f590e31e1fa152a2a533bda5c7304/avg09.InfiniteSkills..Mastering.SolidWorks.2015..Rendering.and.Visualization.part4.rar.html

Uploaded:
http://uploaded.net/file/xvufgein/avg09.InfiniteSkills..Mastering.SolidWorks.2015..Rendering.and.Visualization.part1.rar
http://uploaded.net/file/btazd2ej/avg09.InfiniteSkills..Mastering.SolidWorks.2015..Rendering.and.Visualization.part2.rar
http://uploaded.net/file/qrncdsch/avg09.InfiniteSkills..Mastering.SolidWorks.2015..Rendering.and.Visualization.part3.rar
http://uploaded.net/file/r5mco3l9/avg09.InfiniteSkills..Mastering.SolidWorks.2015..Rendering.and.Visualization.part4.rar

TurboBit:
http://turbobit.net/5pc3ryil034n/avg09.InfiniteSkills..Mastering.SolidWorks.2015..Rendering.and.Visualization.part1.rar.html
http://turbobit.net/vfb2zi4nbx7i/avg09.InfiniteSkills..Mastering.SolidWorks.2015..Rendering.and.Visualization.part2.rar.html
http://turbobit.net/8a80zkwdpkva/avg09.InfiniteSkills..Mastering.SolidWorks.2015..Rendering.and.Visualization.part3.rar.html
http://turbobit.net/2hkawwm56836/avg09.InfiniteSkills..Mastering.SolidWorks.2015..Rendering.and.Visualization.part4.rar.html

UploadAble:
http://www.uploadable.ch/file/TRs8Av5TQTrd/avg09.InfiniteSkills..Mastering.SolidWorks.2015..Rendering.and.Visualization.part1.rar
http://www.uploadable.ch/file/UQvK3NpyvkCn/avg09.InfiniteSkills..Mastering.SolidWorks.2015..Rendering.and.Visualization.part2.rar
http://www.uploadable.ch/file/K6mPfCnEGPtE/avg09.InfiniteSkills..Mastering.SolidWorks.2015..Rendering.and.Visualization.part3.rar
http://www.uploadable.ch/file/zgn7VMWcGaea/avg09.InfiniteSkills..Mastering.SolidWorks.2015..Rendering.and.Visualization.part4.rar

Direct Download


Tags: InfiniteSkills, Mastering, SolidWorks, Rendering, Visualization

InfiniteSkills - Mastering SolidWorks 2015 - Rendering and Visualization Fast Download via Rapidshare Hotfile Fileserve Filesonic Megaupload, InfiniteSkills - Mastering SolidWorks 2015 - Rendering and Visualization Torrents and Emule Download or anything related.
Dear visitor, you went to website as unregistered user.
We encourage you to Register or Login to website under your name.
Information
Members of Guest cannot leave comments.