Lick Library: Ultimate Guitar-Tremolo Bar Techniques with Michael Casswell (2015)

Category: Tutorial | Comment: 0

Download Now

Lick Library: Ultimate Guitar-Tremolo Bar Techniques with Michael Casswell (2015)

Lick Library: Ultimate Guitar-Tremolo Bar Techniques with Michael Casswell (2015)
DVDRip | English | MP4 + MP3 jam tracks | 1024 x 576 | AVC ~1500 Kbps | 25 fps
AAC | 128 Kbps | 48.0 KHz | 2 channels | ~2 hours | 1.29 GB
Genre: eLearning Video / Guitar lesson (2015)

"Learn killer tremelo bar techniques with Michael Casswell This superb DVD will teach you how to get the best from the tremelo system on your guitar! Lessons range from basic tips to wild whammy bar techniques! Learn to imitate a slide guitar, Jeff Beck style harmonic pitch changes, vibrato techniques, sonic tones and much more to help make these essential techniques inherent in your playing. Also includes four jam tracks to practise and perform with. Michael Casswell is a highly sought after freelance guitarist and producer. He has played and toured with many well known bands and artists as diverse as Brian May, Cozy Powell and Ronan Keating to name just a few. His playing can be heard on numerous film and TV soundtracks."

Chapters:
Introduction
Tremolo Types
Vintage Tremolo System
Floyd Rose Tremolo System
Modern Fender Tremolo System
Tremolo Vibrato
Pitching Notes With The Bar
Scooping Notes & Chords
Simulating Slide Guitar
Tricks & Licks
+Performances
-Random Sequence
-Slide In The Park
-Rhodes To Nowhere
-I've Got A Tick

General
Complete name : 10_Tricks_&_Licks.mp4
Format
: MPEG-4
Format profile : Base Media
Codec ID
: isom
File size
: 302 MiB
Duration
: 25mn 53s
Overall bit rate mode : Variable
Overall bit rate : 1 630 Kbps
Encoded date : UTC 2014-10-20 19:49:23
Tagged date
: UTC 2014-10-20 19:49:23

Video
ID : 1
Format
: AVC
Format/Info
: Advanced Video Codec
Format profile : [email protected]
Format settings, CABAC : No
Format settings, ReFrames : 1 frame
Codec ID
: avc1
Codec ID/Info : Advanced Video Coding
Duration
: 25mn 53s
Bit rate
: 1 500 Kbps
Maximum bit rate : 3 151 Kbps
Width
: 1 024 pixels
Height
: 576 pixels
Display aspect ratio : 16:9
Frame rate mode : Constant
Frame rate
: 25.000 fps
Color space
: YUV
Chroma subsampling

: 4:2:0
Bit depth
: 8 bits
Scan type
: Progressive
Bits/(Pixel*Frame)

: 0.102
Stream size
: 278 MiB (92%)
Writing library : x264 core 142 r2479kMod dd79a61
Encoding settings: cabac=0 / ref=1 / deblock=0:0:0 / analyse=0:0 / me=dia / subme=0 / psy=1 / fade_compensate=0.00 / psy_rd=1.00:0.00 / mixed_ref=0 / me_range=16 / chroma_me=1 / trellis=0 / 8x8dct=0 / cqm=0 / deadzone=21,11 / fast_pskip=1 / chroma_qp_offset=0 / threads=12 / lookahead_threads=2 / sliced_threads=0 / nr=0 / decimate=1 / interlaced=0 / bluray_compat=0 / constrained_intra=0 / fgo=0 / bframes=0 / weightp=0 / keyint=250 / keyint_min=25 / scenecut=0 / intra_refresh=0 / rc=2pass / mbtree=0 / bitrate=1500 / ratetol=1.0 / qcomp=0.60 / qpmin=0 / qpmax=69 / qpstep=4 / cplxblur=20.0 / qblur=0.5 / ip_ratio=1.40 / aq=0
Encoded date : UTC 2014-10-20 19:49:23
Tagged date
: UTC 2014-10-20 19:49:25

Audio
ID : 2
Format
: AAC
Format/Info
: Advanced Audio Codec
Format profile : LC
Codec ID
: 40
Duration
: 25mn 53s
Bit rate mode : Variable
Bit rate
: 128 Kbps
Maximum bit rate : 150 Kbps
Channel(s)
: 2 channels
Channel positions: Front: L R
Sampling rate : 48.0 KHz
Compression mode : Lossy
Stream size
: 23.7 MiB (8%)
Encoded date : UTC 2014-10-20 19:47:13
Tagged date
: UTC 2014-10-20 19:49:25

Screenshots

Lick Library: Ultimate Guitar-Tremolo Bar Techniques with Michael Casswell (2015)

Lick Library: Ultimate Guitar-Tremolo Bar Techniques with Michael Casswell (2015)

Lick Library: Ultimate Guitar-Tremolo Bar Techniques with Michael Casswell (2015)

Lick Library: Ultimate Guitar-Tremolo Bar Techniques with Michael Casswell (2015)


DOWNLOAD LINKS:
Buy Premium To Support Me & Get Resumable Support & Max Speed


Links are Interchangeable - No Password - Single Extraction
Direct Download


Tags: Library, Ultimate, Guitar, Techniques, Michael, Casswell

Lick Library: Ultimate Guitar-Tremolo Bar Techniques with Michael Casswell (2015) Fast Download via Rapidshare Hotfile Fileserve Filesonic Megaupload, Lick Library: Ultimate Guitar-Tremolo Bar Techniques with Michael Casswell (2015) Torrents and Emule Download or anything related.
Dear visitor, you went to website as unregistered user.
We encourage you to Register or Login to website under your name.
Information
Members of Guest cannot leave comments.