Gemini Video Guitar Lesson - Power Chord Mechanics Volume One (2015)

Category: Tutorial | Comment: 0

Download Now

Gemini Video Guitar Lesson - Power Chord Mechanics Volume One (2015)

Gemini Video Guitar Lesson - Power Chord Mechanics Volume One (2015)
DVDRip | English | MP4 + WAV jam tracks + PDF tabs | 1280 x 720 | AVC ~1984 Kbps | 25 fps
AAC | 192 Kbps | 48.0 KHz | 2 channels | 1h 30mn | 1.93 GB
Genre: eLearning Video / Guitar lesson (2015)

"This program explores Open Power Chords within the context of 30 cool guitar riffs ranging in style from blues rock to alternative and metal. Associated techniques are broken down along the way, including: practicing changing between the chords, left and right hand dampening/muting, percussive rhythms, melodic additions and voicing alterations. Rock out and create your own ideas with cool sounding drum tracks, or jam along to the backing tracks. As well as this are included Guitar Pro transcriptions for each riff, making learning easier and more intuitive than ever before."

Level: Novice/Intermediate
Running time: 1hr 30mins

Includes:
-Video lessons + performances of each example
-Drum and Bass tracks
-Drum tracks
-Guitar Pro and PDF transcriptions

Power Chord Mechanics - Volume 1
Chapter List

Introduction
* Chord Breakdowns -- 2:27

* Left-Hand Muting -- 4:16

* Practicing Changes
o Riff 1 -- 5:56
o Riff 2 -- 7:57
o Riff 3 -- 9:17
o Riff 4 -- 10:30

* Dampening
o Technique Breakdown -- 12:07
o Riff 1 -- 14:12
o Riff 2 -- 15:51
o Riff 3 -- 17:11
o Riff 4 -- 20:30

* Percussive Riffs
o Riff 1 -- 23:33
o Riff 2 -- 27:35
o Riff 3 -- 29:12
o Riff 4 -- 32:37

* Melodic Additions
o Riff 1 -- 35:52
o Riff 2 -- 38:34
o Riff 3 -- 41:23
o Riff 4 -- 46:08
o Riff 5 -- 50:27
o Riff 6 -- 52:52

* Alterations
o Altered Power Chord Breakdowns -- 57:15
o Riff 1 -- 59:50
o Riff 2 -- 1:01:37
o Riff 3 -- 1:03:21
o Riff 4 -- 1:05:47
o Riff 5 -- 1:08:30
o Riff 6 -- 1:10:46
o Riff 7 -- 1:13:25
o Riff 8 -- 1:16:05
o Riff 9 -- 1:18:09
o Riff 10 -- 1:20:51
o Riff 11 -- 1:23:29
o Riff 12 -- 1:26:26

also You can look my other last:

General
Complete name Power Chord Mechanics, Volume 1.mp4
Format
: MPEG-4
Format profile : Base Media / Version 2
Codec ID
: mp42
File size
: 1.38 GiB
Duration
: 1h 30mn
Overall bit rate : 2 181 Kbps
Encoded date : UTC 2013-01-09 01:50:39
Tagged date
: UTC 2013-01-09 01:50:39

Video
ID : 2
Format
: AVC
Format/Info
: Advanced Video Codec
Format profile : [email protected]
Format settings, CABAC : Yes
Format settings, ReFrames : 5 frames
Format settings, GOP : M=3, N=24
Codec ID
: avc1
Codec ID/Info : Advanced Video Coding
Duration
: 1h 30mn
Bit rate mode : Variable
Bit rate
: 1 984 Kbps
Width
: 1 280 pixels
Height
: 720 pixels
Display aspect ratio : 16:9
Frame rate mode : Constant
Frame rate
: 25.000 fps
Standard
: NTSC
Color space
: YUV
Chroma subsampling

: 4:2:0
Bit depth
: 8 bits
Scan type
: Progressive
Bits/(Pixel*Frame)

: 0.086
Stream size
: 1.26 GiB (91%)
Language
: English
Encoded date : UTC 2013-01-09 01:50:39
Tagged date
: UTC 2013-01-09 01:50:39

Audio
ID : 1
Format
: AAC
Format/Info
: Advanced Audio Codec
Format profile : LC
Codec ID
: 40
Duration
: 1h 30mn
Bit rate mode : Constant
Bit rate
: 192 Kbps
Channel(s)
: 2 channels
Channel positions: Front: L R
Sampling rate : 48.0 KHz
Compression mode : Lossy
Stream size
: 124 MiB (9%)
Language
: English
Encoded date : UTC 2013-01-09 01:50:39
Tagged date
: UTC 2013-01-09 01:50:39

Screenshots

Gemini Video Guitar Lesson - Power Chord Mechanics Volume One (2015)

Gemini Video Guitar Lesson - Power Chord Mechanics Volume One (2015)

Gemini Video Guitar Lesson - Power Chord Mechanics Volume One (2015)


DOWNLOAD LINKS:
Buy Premium To Support Me & Get Resumable Support & Max Speed


Links are Interchangeable - No Password - Single Extraction
Direct Download


Tags: Gemini, Guitar, Lesson, Mechanics

Gemini Video Guitar Lesson - Power Chord Mechanics Volume One (2015) Fast Download via Rapidshare Hotfile Fileserve Filesonic Megaupload, Gemini Video Guitar Lesson - Power Chord Mechanics Volume One (2015) Torrents and Emule Download or anything related.
Dear visitor, you went to website as unregistered user.
We encourage you to Register or Login to website under your name.
Information
Members of Guest cannot leave comments.