Gemini Guitar: Nice Noise - Colouring The Progression (2015)

Category: Tutorial | Comment: 0

Download Now

Gemini Guitar: Nice Noise - Colouring The Progression (2015)

Gemini Guitar: Nice Noise - Colouring The Progression
WEBRip | English | MP4 + PDF tabs + WAV Tracks | 1280 x 720 | AVC ~4009 Kbps | 25 fps
AAC | 192 Kbps | 48.0 KHz | 2 channels | 00:31:33 | 964 MB
Genre: eLearning Video / Guitar lesson (2015)

"In this feature, we take a look at a standard progression, then proceed to infuse it with life using some colourful additions that give it that 'Nice Noise' kinda sound.
As always, Corey breaks everything down in his customary style, ensuring students are given the tools necessary to learn and practice the material covered in an efficient manner."

Includes:
-Video lessons + performances of each example
-Drum and Guitar track
-Drum track
-Guitar Pro and PDF transcriptions

also You can look my other last:

General
Complete name : Ex. 3.mp4
Format
: MPEG-4
Format profile : Base Media / Version 2
Codec ID
: mp42
File size
: 218 MiB
Duration
: 7mn 14s
Overall bit rate : 4 205 Kbps
Encoded date : UTC 2015-03-03 02:39:59
Tagged date
: UTC 2015-03-03 02:39:59

Video
ID : 2
Format
: AVC
Format/Info
: Advanced Video Codec
Format profile : [email protected]
Format settings, CABAC : Yes
Format settings, ReFrames : 5 frames
Codec ID
: avc1
Codec ID/Info : Advanced Video Coding
Duration
: 7mn 14s
Bit rate mode : Variable
Bit rate
: 4 009 Kbps
Width
: 1 280 pixels
Height
: 720 pixels
Display aspect ratio : 16:9
Frame rate mode : Constant
Frame rate
: 25.000 fps
Standard
: NTSC
Color space
: YUV
Chroma subsampling

: 4:2:0
Bit depth
: 8 bits
Scan type
: Progressive
Bits/(Pixel*Frame)

: 0.174
Stream size
: 208 MiB (95%)
Language
: English
Encoded date : UTC 2015-03-03 02:39:59
Tagged date
: UTC 2015-03-03 02:39:59

Audio
ID : 1
Format
: AAC
Format/Info
: Advanced Audio Codec
Format profile : LC
Codec ID
: 40
Duration
: 7mn 14s
Bit rate mode : Constant
Bit rate
: 192 Kbps
Channel(s)
: 2 channels
Channel positions: Front: L R
Sampling rate : 48.0 KHz
Compression mode : Lossy
Stream size
: 9.95 MiB (5%)
Language
: English
Encoded date : UTC 2015-03-03 02:39:59
Tagged date
: UTC 2015-03-03 02:39:59

Screenshots

Gemini Guitar: Nice Noise - Colouring The Progression (2015)

Gemini Guitar: Nice Noise - Colouring The Progression (2015)

Gemini Guitar: Nice Noise - Colouring The Progression (2015)



DOWNLOAD LINKS:
Buy Premium To Support Me & Get Resumable Support & Max Speed


Links are Interchangeable - No Password - Single Extraction
Direct Download


Tags: Gemini, Guitar, Colouring, Progression

Gemini Guitar: Nice Noise - Colouring The Progression (2015) Fast Download via Rapidshare Hotfile Fileserve Filesonic Megaupload, Gemini Guitar: Nice Noise - Colouring The Progression (2015) Torrents and Emule Download or anything related.
Dear visitor, you went to website as unregistered user.
We encourage you to Register or Login to website under your name.
Information
Members of Guest cannot leave comments.