20 Licks Melodic Freedom with Mateus Asato (2015)

Category: Tutorial | Comment: 0

Download Now

20 Licks Melodic Freedom with Mateus Asato (2015)

20 Licks Melodic Freedom (2015)
WEBRip | English | MP4 + MP3 jam traks + PDF tabs | 1280 x 720 | AVC ~3296 Kbps | 29.970 fps
AAC | 192 Kbps | 48.0 KHz | 2 channels | ~20 minutes | 520 MB
Genre: eLearning Video / Guitar lesson

"JTC is incredibly proud to bring you this hotly anticipated JTC release from the up and coming artist Mateus Asato! Mateus has shocked and astounded us with his super melodic, fresh and inspiring approach to modern guitar playing . Using his trademark stylistic combination of fingerstyle, double-stops, smooth melodies and bending, Mateus has created 20 licks that will push the musical boundaries of your playing."

Featuring plenty of modal playing, wider interval melodies, smooth bluesy guitar lines, tasteful shred passages and arpeggios that adhere to the underlying harmony. These licks will encourage a lateral insight into how you can approach your improvisations, and help you to achieve the rhythmic and melodic freedom that every player desires to obtain.

As ever, we have accurately transcribed every note and included the TAB/notation in the download, full backing tracks, audio solos and track notes.

also You can look my other last:

General
Complete name : ma_20licksmelodicfreedom_lick14_slow.mp4
Format : MPEG-4
Format profile : Base Media / Version 2
Codec ID : mp42
File size : 11.1 MiB
Duration : 26s 527ms
Overall bit rate mode : Variable
Overall bit rate : 3 504 Kbps
Encoded date : UTC 2015-03-12 19:25:05
Tagged date : UTC 2015-03-12 19:25:05
©TIM : 00;00;00;00
©TSC : 30000
©TSZ : 1001

Video
ID : 1
Format : AVC
Format/Info : Advanced Video Codec
Format profile : [email protected]
Format settings, CABAC : Yes
Format settings, ReFrames : 3 frames
Codec ID : avc1
Codec ID/Info : Advanced Video Coding
Duration : 26s 527ms
Bit rate : 3 296 Kbps
Width : 1 280 pixels
Height : 720 pixels
Display aspect ratio : 16:9
Frame rate mode : Constant
Frame rate : 29.970 fps
Standard : NTSC
Color space : YUV
Chroma subsampling : 4:2:0
Bit depth : 8 bits
Scan type : Progressive
Bits/(Pixel*Frame) : 0.119
Stream size : 10.4 MiB (94%)
Language : English
Encoded date : UTC 2015-03-12 19:25:05
Tagged date : UTC 2015-03-12 19:25:05

Audio
ID : 2
Format : AAC
Format/Info : Advanced Audio Codec
Format profile : LC
Codec ID : 40
Duration : 26s 527ms
Source duration : 26s 560ms
Bit rate mode : Variable
Bit rate : 192 Kbps
Maximum bit rate : 291 Kbps
Channel(s) : 2 channels
Channel positions : Front: L R
Sampling rate : 48.0 KHz
Compression mode : Lossy
Stream size : 613 KiB (5%)
Source stream size : 614 KiB
Language : English
Encoded date : UTC 2015-03-12 19:25:05
Tagged date : UTC 2015-03-12 19:25:05

Screenshots

20 Licks Melodic Freedom with Mateus Asato (2015)

20 Licks Melodic Freedom with Mateus Asato (2015)

20 Licks Melodic Freedom with Mateus Asato (2015)

For more Exclusive material, Visit my

20 Licks Melodic Freedom with Mateus Asato (2015)

Download Below:
----------------------------------------------
Recommend Purchase Premium Account

----------------------------------------------

RapidGator:
http://rapidgator.net/file/388c7b25b105f7f36c356e7d6233f812/50bfa.20.Licks.Melodic.Freedom.with.Mateus.Asato.2015.part1.rar.html
http://rapidgator.net/file/e9a28a34035b8facf933a94a2b2da05a/50bfa.20.Licks.Melodic.Freedom.with.Mateus.Asato.2015.part2.rar.html
http://rapidgator.net/file/563303347ed8b32c91d17e9f5fedca34/50bfa.20.Licks.Melodic.Freedom.with.Mateus.Asato.2015.part3.rar.html
http://rapidgator.net/file/a191d842ff64c3c77b00350e31f443fe/50bfa.20.Licks.Melodic.Freedom.with.Mateus.Asato.2015.part4.rar.html
http://rapidgator.net/file/f9b705905bbbd387ceb66a38bd9d3125/50bfa.20.Licks.Melodic.Freedom.with.Mateus.Asato.2015.part5.rar.html
http://rapidgator.net/file/d88187a6e5a24edd0a9fc3d85b9796ff/50bfa.20.Licks.Melodic.Freedom.with.Mateus.Asato.2015.part6.rar.html

Uploaded:
http://uploaded.net/file/wncwqy23/50bfa.20.Licks.Melodic.Freedom.with.Mateus.Asato.2015.part1.rar
http://uploaded.net/file/g1xlnwb7/50bfa.20.Licks.Melodic.Freedom.with.Mateus.Asato.2015.part2.rar
http://uploaded.net/file/muqoojql/50bfa.20.Licks.Melodic.Freedom.with.Mateus.Asato.2015.part3.rar
http://uploaded.net/file/h9khe3eu/50bfa.20.Licks.Melodic.Freedom.with.Mateus.Asato.2015.part4.rar
http://uploaded.net/file/oekd0yb7/50bfa.20.Licks.Melodic.Freedom.with.Mateus.Asato.2015.part5.rar
http://uploaded.net/file/ckdlg835/50bfa.20.Licks.Melodic.Freedom.with.Mateus.Asato.2015.part6.rar

TurboBit:
http://turbobit.net/ex03hy11e0lz/50bfa.20.Licks.Melodic.Freedom.with.Mateus.Asato.2015.part2.rar.html
http://turbobit.net/0jqlwgozjwcq/50bfa.20.Licks.Melodic.Freedom.with.Mateus.Asato.2015.part3.rar.html
http://turbobit.net/gqt4l9kzrm9t/50bfa.20.Licks.Melodic.Freedom.with.Mateus.Asato.2015.part4.rar.html
http://turbobit.net/iu9gqfjp6hl0/50bfa.20.Licks.Melodic.Freedom.with.Mateus.Asato.2015.part5.rar.html
http://turbobit.net/xmdanl1oik8o/50bfa.20.Licks.Melodic.Freedom.with.Mateus.Asato.2015.part6.rar.html

Direct Download


Tags: Melodic, Freedom, Mateus

20 Licks Melodic Freedom with Mateus Asato (2015) Fast Download via Rapidshare Hotfile Fileserve Filesonic Megaupload, 20 Licks Melodic Freedom with Mateus Asato (2015) Torrents and Emule Download or anything related.
Dear visitor, you went to website as unregistered user.
We encourage you to Register or Login to website under your name.
Information
Members of Guest cannot leave comments.