Lick Library Jack Gardiner - Artist Pack

Category: Tutorial | Comment: 0

Download Now


Lick Library Jack Gardiner - Artist Pack
Lick Library: Jack Gardiner - Artist Pack
WEBRip | English | MP4 + MP3 jam tracks + PDF tabs | 1920 x 1080 | AVC ~1500 Kbps | 25 fps
AAC | 160 Kbps | 48.0 KHz | 2 channels | 00:13:54 | 201 MB






"Learn to play like Jack Gardiner as he demonstrates a series of improvisations over these 5 professional backing tracks."
The solos are fully transcribed and include text write-ups giving you tips for scale choices, understanding the progressions and making sense out of the licks Jack plays.
CONTENTS/CHAPTERS
1 x TAB/Notation in PDF and GP6
5 x Video Performances in MP4 format (compatible with the iPad and most other mobile devices)
5 x MP3 Backing Tracks
5 x Transcriptions in both PDF & Guitar Pro 6 formats
General
Complete name : ap_jg_newbeginnings.mp4
Format
: MPEG-4
Format profile : Base Media
Codec ID
: isom
File size
: 45.8 MiB
Duration
: 3mn 50s
Overall bit rate mode : Variable
Overall bit rate : 1 668 Kbps
Encoded date : UTC 2014-05-14 12:48:18
Tagged date
: UTC 2014-05-14 12:48:18
Video
ID : 1
Format
: AVC
Format/Info
: Advanced Video Codec
Format settings, CABAC : Yes
Format settings, ReFrames : 5 frames
Codec ID
: avc1
Codec ID/Info : Advanced Video Coding
Duration
: 3mn 50s
Bit rate
: 1 500 Kbps
Maximum bit rate : 4 349 Kbps
Width
: 1 920 pixels
Height
: 1 080 pixels
Display aspect ratio : 16:9
Frame rate mode : Constant
Frame rate
: 25.000 fps
Color space
: YUV
Chroma subsampling
: 4:2:0
Bit depth
: 8 bits
Scan type
: Progressive
Bits/(Pixel*Frame)
: 0.029
Stream size
: 41.3 MiB (90%)
Writing library : x264 core 142 r2409kMod d6b4e63
Encoding settings: cabac=1 / ref=5 / deblock=1:0:0 / analyse=0x3:0x113 / me=umh / subme=8 / psy=1 / fade_compensate=0.00 / psy_rd=1.00:0.00 / mixed_ref=1 / me_range=16 / chroma_me=1 / trellis=1 / 8x8dct=1 / cqm=0 / deadzone=21,11 / fast_pskip=1 / chroma_qp_offset=-2 / threads=5 / lookahead_threads=1 / sliced_threads=0 / nr=0 / decimate=1 / interlaced=0 / bluray_compat=0 / constrained_intra=0 / fgo=0 / bframes=3 / b_pyramid=2 / b_adapt=2 / b_bias=0 / direct=3 / weightb=1 / open_gop=0 / weightp=2 / keyint=250 / keyint_min=25 / scenecut=40 / intra_refresh=0 / rc_lookahead=50 / rc=2pass / mbtree=1 / bitrate=1500 / ratetol=1.0 / qcomp=0.60 / qpmin=0 / qpmax=69 / qpstep=4 / cplxblur=20.0 / qblur=0.5 / ip_ratio=1.40 / aq=1:1.00
Encoded date : UTC 2014-05-14 12:48:18
Tagged date
: UTC 2014-05-14 12:48:19
Audio
ID : 2
Format
: AAC
Format/Info
: Advanced Audio Codec
Format profile : LC
Codec ID
: 40
Duration
: 3mn 50s
Bit rate mode : Variable
Bit rate
: 160 Kbps
Maximum bit rate : 174 Kbps
Channel(s)
: 2 channels
Channel positions: Front: L R
Sampling rate : 48.0 KHz
Compression mode : Lossy
Stream size
: 4.40 MiB (10%)
Encoded date : UTC 2014-05-14 12:35:03
Tagged date
: UTC 2014-05-14 12:48:19
Screenshots
Lick Library Jack Gardiner - Artist Pack
Lick Library Jack Gardiner - Artist Pack
Lick Library Jack Gardiner - Artist Pack
Lick Library Jack Gardiner - Artist Pack



I recommends Buy premimum account for High speed+parallel downloads!

Rapidgator


alfafile





Direct Download


Tags: Library, Gardiner, Artist

Lick Library Jack Gardiner - Artist Pack Fast Download via Rapidshare Hotfile Fileserve Filesonic Megaupload, Lick Library Jack Gardiner - Artist Pack Torrents and Emule Download or anything related.
Dear visitor, you went to website as unregistered user.
We encourage you to Register or Login to website under your name.
Information
Members of Guest cannot leave comments.