Visvamitrasana with Vytas Baskauskas (2015)

Category: Tutorial | Comment: 0

Download Now

Visvamitrasana with Vytas Baskauskas (2015)
Visvamitrasana with Vytas Baskauskas (2015)
WEBRip | English | MP4 | 1280 x 720 | AVC ~1818 Kbps | 23.976 fps
AAC | 161 kbps | 48.0 KHz | 2 channel | 01:02:02 | 881 MB

"This class will wk toward an advanced posture called Visvamitrasana which takes a lot of openness in the hips and hamstrings. We will wk our way through all of the component parts on the way to attempting the full pose. Whether not you actually can get into the full expression of the pose doesn't matter. An advanced practice is much me about breath and mindfulness than how beautiful the pose turns out. This is a sequence that will challenge and even perplex you at times so just remember to hon your own process. If done consciously, you are bound to be successful."

This pose will

Strengthen the upper body, wrists, and legs
Stretch the outer hips and glutes[/i]

Ever since I can remember, I have been on the search f me, f something greater. Growing up in LA, I never truly felt comftable in my own skin. I hungered f knowledge and growth through perspectives that differed from myopic western systems. After reading some Alan Watts and Krishnamurti my thirst grew stronger and, although I didn't know it at the time, I began my path seeking out yoga. Some of my old friends had found yoga and invited me to classes with them. At first, I rejected the notion. My assumptions about yogis kept me away: there was no way I was going to start eating tofu, opening chakras and chanting to Gods I knew nothing about. Thanks to my persistent friends, I walked into a Bryan Kest class in the summer of 2000. His down to earth approach was exactly what I needed and I instantly resonated with the physical benefits of the practice. The practice was a perfect companion f my recovery: my body healed from the abuse of addiction, and my mind grew clearer. The high I had experienced with heroin was now replaced by calmness, balance and equanimity. My practice grew and I found another great teacher that gave me new insights and pearls. Govindas showed me the soul of yoga. However, my seeking did not subside. After finishing graduate school in mathematics at UCLA, I noticed that Bryan was doing a teacher training in Mexico. I wasn't interested in teaching, but wanted to deepen my practice and travel. The training exposed me to new ideas, two of which I connected with immediately. The first was a 3-day Iyengar intensive with Lisa Walfd. My analytical mind was intrigued by the depth of alignment instruction and precision she presented. I was hooked. In addition to intense physical practice every day, we meditated at the end of the evening f 45 minutes. This was the next step f me. Even though I had achieved great control over my body, I realized I had almost no control over my own mind. Meditation was the most challenging part f me in the training, and at the same time, the most rewarding. Today I practice asana regularly at home and try my best to meditate every day. My teacher Vinnie Marino helps me continue to learn better ways to teach and incpate my yoga into day-to-day life. He is a wonderful ment and friend. I have climbed but a few steps of the ladder and am wking my way upward still. Every fault is an opptunity f growth and every day is an opptunity f life. I am lucky to have great friends and family to share the love with. Hope to see you as we follow the road to happy destiny.

Complete name : Vytas Baskauskas Yoga - Visvamitrasana 60 min.mp4
: MPEG-4
Fmat profile : Base Media / Version 2
Codec ID
: mp42
File size
: 881 MiB
: 1h 2mn
Overall bit rate mode : Variable
Overall bit rate : 1 985 Kbps
Encoded date : UTC 2036-02-06 06:28:16
Tagged date
: UTC 2036-02-06 06:28:16
Writing application
: HandBrake 0.10.2 2015060900
ID : 1
: Advanced Video Codec
Fmat settings, CABAC : Yes
Fmat settings, ReFrames : 4 frames
Codec ID
: avc1
Codec ID/Info : Advanced Video Coding
: 1h 2mn
Bit rate
: 1 818 Kbps
: 1 280 pixels
: 720 pixels
Display aspect ratio : 16:9
Frame rate mode : Variable
Frame rate
: 23.976 fps
Minimum frame rate
: 23.974 fps
Maximum frame rate
: 23.981 fps
Col space
Chroma subsampling
: 4:2:0
Bit depth
: 8 bits
Scan type
: Progressive
: 0.082
Stream size
: 807 MiB (92%)
Writing library : x264 ce 142 r2479 dd79a61
Encoding settings: cabac=1 / ref=1 / deblock=1:0:0 / analyse=0x1:0x111 / me=hex / subme=2 / psy=1 / psy_rd=1.00:0.00 / mixed_ref=0 / me_range=16 / chroma_me=1 / trellis=0 / 8x8dct=0 / cqm=0 / deadzone=21,11 / fast_pskip=1 / chroma_qp_offset=0 / threads=12 / lookahead_threads=4 / sliced_threads=0 / nr=0 / decimate=1 / interlaced=0 / bluray_compat=0 / constrained_intra=0 / bframes=3 / b_pyramid=2 / b_adapt=1 / b_bias=0 / direct=1 / weightb=1 / open_gop=0 / weightp=1 / keyint=240 / keyint_min=24 / scenecut=40 / intra_refresh=0 / rc_lookahead=10 / rc=2pass / mbtree=1 / bitrate=1818 / ratetol=1.0 / qcomp=0.60 / qpmin=0 / qpmax=69 / qpstep=4 / cplxblur=20.0 / qblur=0.5 / vbv_maxrate=20000 / vbv_bufsize=25000 / nal_hrd=none / filler=0 / ip_ratio=1.40 / aq=1:1.00
Encoded date : UTC 2036-02-06 06:28:16
Tagged date
: UTC 2036-02-06 06:28:16
Col primaries : BT.709-5, BT.1361, IEC 61966-2-4, SMPTE RP177
Transfer characteristics : BT.709-5, BT.1361
Matrix coefficients
: BT.709-5, BT.1361, IEC 61966-2-4 709, SMPTE RP177
ID : 2
: Advanced Audio Codec
Fmat profile : LC
Codec ID
: 40
: 1h 2mn
Bit rate mode : Variable
Bit rate
: 161 Kbps
: 2 channels
Channel positions: Front: L R
Sampling rate : 48.0 KHz
Compression mode : Lossy
Stream size
: 71.2 MiB (8%)
: Stereo
Encoded date : UTC 2036-02-06 06:28:16
Tagged date
: UTC 2036-02-06 06:28:16

Visvamitrasana with Vytas Baskauskas (2015)
Visvamitrasana with Vytas Baskauskas (2015)
Visvamitrasana with Vytas Baskauskas (2015)
Visvamitrasana with Vytas Baskauskas (2015)

I recommends Buy premimum account for High speed+parallel downloads!


Direct Download

Tags: Visvamitrasana, Baskauskas

Visvamitrasana with Vytas Baskauskas (2015) Fast Download via Rapidshare Hotfile Fileserve Filesonic Megaupload, Visvamitrasana with Vytas Baskauskas (2015) Torrents and Emule Download or anything related.
Dear visitor, you went to website as unregistered user.
We encourage you to Register or Login to website under your name.
Members of Guest cannot leave comments.