Rendez Vous by J. Vallarino

Category: Tutorial | Comment: 0

Download Now


Rendez Vous by J. Vallarino
Rendez Vous by J. Vallarino
DVDRip | French | AVI | 640 x 464 | DX50 ~433 kbps | 25 fps | ADPCM | 32.8 Kbps | 1 channel | 01:03:36 | 215 MB





"Includes 11 effects & techniques- five effects are perfmed to music. You will find fresh approaches to old classics, including an extra-clean "Signed Card" effect, & straight fward versions of Collects, Reset & S&wich. Simple & convincing false-cuts & controls are also explained."

General
Complete name : Jean-Pierre Vallarino - Rende Zvous.avi
Fmat : AVI
Fmat/Info : Audio Video Interleave
File size : 215 MiB
Duration : 1h 3mn
Overall bit rate : 473 Kbps
Comment : Compressed with EO Video /
Video
ID : 0
Fmat : MPEG-4 Visual
Fmat settings, BVOP : 1
Fmat settings, QPel : No
Fmat settings, GMC : No warppoints
Fmat settings, Matrix : Default (H.263)
Muxing mode : Packed bitstream
Codec ID : DX50
Codec ID/Hint : DivX 5
Duration : 1h 3mn
Bit rate : 433 Kbps
Width : 640 pixels
Height : 464 pixels
Display aspect ratio : 1.379
Frame rate : 25.000 fps
Col space : YUV
Chroma subsampling : 4:2:0
Bit depth : 8 bits
Scan type : Progressive
Compression mode : Lossy
Bits/(Pixel*Frame) : 0.058
Stream size : 197 MiB (92%)
Writing library : DivX 5.0.3 (UTC 2003-01-24)
Audio
ID : 1
Fmat : ADPCM
Codec ID : 2
Duration : 1h 3mn
Bit rate mode : Constant
Bit rate : 32.8 Kbps
Channel(s) : 1 channel
Sampling rate : 8 000 Hz
Bit depth : 4 bits
Stream size : 14.9 MiB (7%)
Interleave, duration : 86 ms (2.15 video frames)
Interleave, preload duration : 500 ms

Screenshots

Rendez Vous by J. Vallarino

Rendez Vous by J. Vallarino

Rendez Vous by J. Vallarino

Rendez Vous by J. Vallarino




I recommends Buy premimum account for High speed+parallel downloads!
Rapidgator


nitroflare


Direct Download


Tags: Rendez, Vallarino

Rendez Vous by J. Vallarino Fast Download via Rapidshare Hotfile Fileserve Filesonic Megaupload, Rendez Vous by J. Vallarino Torrents and Emule Download or anything related.
Dear visitor, you went to website as unregistered user.
We encourage you to Register or Login to website under your name.
Information
Members of Guest cannot leave comments.