Lloyd Barnes - Diffuse (2015)

Category: Tutorial | Comment: 0

Download Now


Lloyd Barnes - Diffuse (2015)
Lloyd Barnes - Diffuse (2015)
WEBRip | English | M4V | 1280 x 720 | AVC ~2200 kbps | 30 fps | AAC | 96 Kbps | 2 channels | 00:26:54 | 442.4 MB




"Lloyd Barnes has assaulted the ambitious card Description with this hyper-visual melting of a signed selection through deck. Throwing out the rule book, Lloyd has created a visual ending to his Ambitious Card that he has used for years. Slowly sink a signed-card through the deck, or watch it unmistakably rise to top...WITH ZERO COVER."

- Easy to do
- Perform surrounded[/i]

General
Complete name : Lloyd Barnes - Diffuse.m4v
Format
: MPEG-4
Format profile : Base Media / Version 2
Codec ID
: mp42
File size
: 442 MiB
Duration
: 26mn 54s
Overall bit rate mode : Variable
Overall bit rate : 2 299 Kbps
Movie name
: Diffuse
Performer
: Lloyd Barnes
Writing application
: HandBrake 0.10.0 2014112200
Video
ID : 1
Format
: AVC
Format/Info
: Advanced Video Codec
Format profile :
Format settings, CABAC : Yes
Format settings, ReFrames : 5 frames
Codec ID
: avc1
Codec ID/Info : Advanced Video Coding
Duration
: 26mn 54s
Bit rate
: 2 200 Kbps
Width
: 1 280 pixels
Height
: 720 pixels
Display aspect ratio : 16:9
Frame rate mode : Constant
Frame rate
: 30.000 fps
Color space
: YUV
Chroma subsampling
: 4:2:0
Bit depth
: 8 bits
Scan type
: Progressive
Bits/(Pixel*Frame)
: 0.080
Stream size
: 422 MiB (95%)
Writing library : x264 core 142 r2479 dd79a61
Encoding settings: cabac=1 / ref=5 / deblock=1:0:0 / analyse=0x3:0x113 / me=umh / subme=8 / psy=1 / psy_rd=1.00:0.00 / mixed_ref=1 / me_range=16 / chroma_me=1 / trellis=1 / 8x8dct=1 / cqm=0 / deadzone=21,11 / fast_pskip=1 / chroma_qp_offset=-2 / threads=12 / lookahead_threads=2 / sliced_threads=0 / nr=0 / decimate=1 / interlaced=0 / bluray_compat=0 / constrained_intra=0 / bframes=3 / b_pyramid=2 / b_adapt=2 / b_bias=0 / direct=3 / weightb=1 / open_gop=0 / weightp=2 / keyint=300 / keyint_min=30 / scenecut=40 / intra_refresh=0 / rc_lookahead=50 / rc=abr / mbtree=1 / bitrate=2200 / ratetol=1.0 / qcomp=0.60 / qpmin=0 / qpmax=69 / qpstep=4 / vbv_maxrate=17500 / vbv_bufsize=17500 / nal_hrd=none / filler=0 / ip_ratio=1.40 / aq=1:1.00
Color primaries : BT.709-5, BT.1361, IEC 61966-2-4, SMPTE RP177
Transfer characteristics : BT.709-5, BT.1361
Matrix coefficients
: BT.709-5, BT.1361, IEC 61966-2-4 709, SMPTE RP177
Audio
ID : 2
Format
: AAC
Format/Info
: Advanced Audio Codec
Format profile : LC
Codec ID
: 40
Duration
: 26mn 54s
Bit rate mode : Variable
Bit rate
: 96.0 Kbps
Channel(s)
: 2 channels
Channel positions: Front: L R
Sampling rate : 44.1 KHz
Compression mode : Lossy
Stream size
: 18.6 MiB (4%)
Title
: Stereo
Text
ID : 3
Format
: Apple text
Codec ID
: text
Duration
: 26mn 54s
Bit rate mode : Variable
Bit rate
: 1 bps
Stream size
: 277 Bytes (0%)
Language
: English

Screenshots
Lloyd Barnes - Diffuse (2015)
Lloyd Barnes - Diffuse (2015)
Lloyd Barnes - Diffuse (2015)





I recommends Buy premimum account for High speed+parallel downloads!

Rapidgator


Nitroflare





Direct Download


Tags: Barnes, Diffuse

Lloyd Barnes - Diffuse (2015) Fast Download via Rapidshare Hotfile Fileserve Filesonic Megaupload, Lloyd Barnes - Diffuse (2015) Torrents and Emule Download or anything related.
Dear visitor, you went to website as unregistered user.
We encourage you to Register or Login to website under your name.
Information
Members of Guest cannot leave comments.