Jason Sani The Clubz Fitness Program (2016)

Category: Tutorial | Comment: 0

Download Now

Jason Sani   The Clubz Fitness Program (2016)
Jason Sani - The Clubz Fitness Program
WEBRip | English | MP4 + PDF Guide | 720 x 480 | AVC ~1527 kbps | 23.976 fps
AAC | 159 Kbps | 48.0 KHz | 2 channels | ~7 hours | 4.99 GB
Genre: eLearning Video / Cardio Workout, Fitness, Sports, Health


=============

The Clubz Fitness Program is a phenomenal new way of turning your body into a fat-torching, muscle sculpting machine. The secret is efficiency; finding a functional fitness program that works your body hard, but does it in just minutes a day. The Clubz Program delivers that efficiency with what we call Torsional Training. By adding our patent pending Clubz weights as an extension of the body, you automatically kick it into high gear and work harder. You don't have to think about it...it just happens!

So what does this mean for you?

It means you're using much more energy and burning more calories. You're increasing your heart rate. You're strengthening your core. And you're developing lean muscle.

A little bit about the tool. The Clubz have been around for a long time. In fact, they were used in the 1800's and early 1900's by elite athletes and soldiers. Some would even argue that the Clubz were the first organized group fitness program ever! And believe it or not, Club Swinging was a gold medal event in the 1904 and 1932 Summer Olympic Games.

Why It Works

The Clubz program is based on Functional Training. So what does that mean?

It means we are asking you to make whole body movements where you are using a bunch of muscle groups at the same time. This is muscle integration instead of muscle isolation...think jumping jacks versus a dumbbell curl. The body is being trained as a whole instead of in parts. And then by adding the Clubz weights as an extension of your body, we've added some hot sauce to those movements.

Remember that's Torsional Training. What it delivers is EVERYTHING you need in a fitness program in a short amount of time.

Look life gets in the way! We know you are busy people and finding time for a fitness program can be tough.

Eight weeks of awesome effort! If you put in the work, you won't believe how you'll feel on the other side. The Clubz Calendar has been laid out in a way that is super easy to follow.

The Clubz workout is made up of 4 phases. Phase 1 is the 1st 2 weeks...we call it Fast Start. Phase 2 is the 2nd 2 weeks...how about some Hot Sauce! Phase 3 is the 3rd 2 weeks... get ready for the Inferno. Phase 4 is the final 2 weeks...we call it Addiction for a reason!


MediaInfo:


General
Complete name                            : Delta.mp4
Format                                   : MPEG-4
Format profile                           : Base Media / Version 2
Codec ID                                 : mp42 (isom/iso2/avc1/mp41)
File size                                : 287 MiB
Duration                                 : 23mn 42s
Overall bit rate mode                    : Variable
Overall bit rate                         : 1 693 Kbps
Encoded date                             : UTC 2016-04-09 17:16:35
Tagged date                              : UTC 2016-04-09 17:16:35
Writing application                      : HandBrake 0.10.5 2016021100

Video
ID                                       : 1
Format                                   : AVC
Format/Info                              : Advanced Video Codec
Format profile                           : [email protected]
Format settings, CABAC                   : Yes
Format settings, ReFrames                : 4 frames
Codec ID                                 : avc1
Codec ID/Info                            : Advanced Video Coding
Duration                                 : 23mn 42s
Bit rate                                 : 1 527 Kbps
Width                                    : 720 pixels
Height                                   : 480 pixels
Display aspect ratio                     : 16:9
Original display aspect ratio            : 16:9
Frame rate mode                          : Variable
Frame rate                               : 23.976 (24000/1001) fps
Minimum frame rate                       : 19.978 fps
Maximum frame rate                       : 29.970 fps
Color space                              : YUV
Chroma subsampling                       : 4:2:0
Bit depth                                : 8 bits
Scan type                                : Progressive
Bits/(Pixel*Frame)                       : 0.184
Stream size                              : 259 MiB (90%)
Writing library                          : x264 core 142 r2479 dd79a61
Encoding settings                        : cabac=1 / ref=1 / deblock=1:0:0 / analyse=0x1:0x111 / me=hex / subme=2 / psy=1 / psy_rd=1.00:0.00 / mixed_ref=0 / me_range=16 / chroma_me=1 / trellis=0 / 8x8dct=0 / cqm=0 / deadzone=21,11 / fast_pskip=1 / chroma_qp_offset=0 / threads=12 / lookahead_threads=3 / sliced_threads=0 / nr=0 / decimate=1 / interlaced=0 / bluray_compat=0 / constrained_intra=0 / bframes=3 / b_pyramid=2 / b_adapt=1 / b_bias=0 / direct=1 / weightb=1 / open_gop=0 / weightp=1 / keyint=240 / keyint_min=24 / scenecut=40 / intra_refresh=0 / rc_lookahead=10 / rc=2pass / mbtree=1 / bitrate=1527 / ratetol=1.0 / qcomp=0.60 / qpmin=0 / qpmax=69 / qpstep=4 / cplxblur=20.0 / qblur=0.5 / vbv_maxrate=20000 / vbv_bufsize=25000 / nal_hrd=none / filler=0 / ip_ratio=1.40 / aq=1:1.00
Encoded date                             : UTC 2016-04-09 17:16:35
Tagged date                              : UTC 2016-04-09 17:16:35
Color range                              : Limited
Color primaries                          : BT.601 NTSC
Transfer characteristics                 : BT.709
Matrix coefficients                      : BT.601

Audio
ID                                       : 2
Format                                   : AAC
Format/Info                              : Advanced Audio Codec
Format profile                           : LC
Codec ID                                 : 40
Duration                                 : 23mn 42s
Bit rate mode                            : Variable
Bit rate                                 : 159 Kbps
Channel(s)                               : 2 channels
Channel positions                        : Front: L R
Sampling rate                            : 48.0 KHz
Frame rate                               : 46.875 fps (1024 spf)
Compression mode                         : Lossy
Stream size                              : 26.9 MiB (9%)
Title                                    : Stereo / Stereo
Default                                  : Yes
Alternate group                          : 1
Encoded date                             : UTC 2016-04-09 17:16:35
Tagged date                              : UTC 2016-04-09 17:16:35



Screenshots
Jason Sani   The Clubz Fitness Program (2016)
Jason Sani   The Clubz Fitness Program (2016)
Jason Sani   The Clubz Fitness Program (2016)
Jason Sani   The Clubz Fitness Program (2016)
Jason Sani   The Clubz Fitness Program (2016)
Jason Sani   The Clubz Fitness Program (2016)

Download link
Rapidgator

http://rapidgator.net/file/d7ec84f8c1e08a7b28d480d5789398ec/0hcxp.Jason.Sani..The.Clubz.Fitness.Program.2016.part1.rar.html
http://rapidgator.net/file/9dc9bcacde5f4743d262380afa701232/0hcxp.Jason.Sani..The.Clubz.Fitness.Program.2016.part2.rar.html
http://rapidgator.net/file/bd8d44132fa9d1ff31d36eeb56822697/0hcxp.Jason.Sani..The.Clubz.Fitness.Program.2016.part3.rar.html
http://rapidgator.net/file/030b4e960f8fe319208c2cc489fde972/0hcxp.Jason.Sani..The.Clubz.Fitness.Program.2016.part4.rar.html
http://rapidgator.net/file/990eed7187bc890d0cdbb21e7369806c/0hcxp.Jason.Sani..The.Clubz.Fitness.Program.2016.part5.rar.html
http://rapidgator.net/file/5c4ade8e86669fc2abb195081b5ee2a5/0hcxp.Jason.Sani..The.Clubz.Fitness.Program.2016.part6.rar.html

Uploaded

http://uploaded.net/file/glunqoij/0hcxp.Jason.Sani..The.Clubz.Fitness.Program.2016.part1.rar
http://uploaded.net/file/yocbnmrs/0hcxp.Jason.Sani..The.Clubz.Fitness.Program.2016.part2.rar
http://uploaded.net/file/phhuel0j/0hcxp.Jason.Sani..The.Clubz.Fitness.Program.2016.part3.rar
http://uploaded.net/file/1j0flt5b/0hcxp.Jason.Sani..The.Clubz.Fitness.Program.2016.part4.rar
http://uploaded.net/file/849flyi4/0hcxp.Jason.Sani..The.Clubz.Fitness.Program.2016.part5.rar
http://uploaded.net/file/kunlle2p/0hcxp.Jason.Sani..The.Clubz.Fitness.Program.2016.part6.rar

Nitroflare

http://nitroflare.com/view/B69D591868835D7/0hcxp.Jason.Sani..The.Clubz.Fitness.Program.2016.part1.rar
http://nitroflare.com/view/793354837067572/0hcxp.Jason.Sani..The.Clubz.Fitness.Program.2016.part2.rar
http://nitroflare.com/view/50E17EE41C8A8D2/0hcxp.Jason.Sani..The.Clubz.Fitness.Program.2016.part3.rar
http://nitroflare.com/view/A8F596B8C9E3859/0hcxp.Jason.Sani..The.Clubz.Fitness.Program.2016.part4.rar
http://nitroflare.com/view/730D23FDA657C04/0hcxp.Jason.Sani..The.Clubz.Fitness.Program.2016.part5.rar
http://nitroflare.com/view/D9F91B847F46CF2/0hcxp.Jason.Sani..The.Clubz.Fitness.Program.2016.part6.rar
Direct Download


Tags: Fitness, Program

Jason Sani The Clubz Fitness Program (2016) Fast Download via Rapidshare Hotfile Fileserve Filesonic Megaupload, Jason Sani The Clubz Fitness Program (2016) Torrents and Emule Download or anything related.
Dear visitor, you went to website as unregistered user.
We encourage you to Register or Login to website under your name.
Information
Members of Guest cannot leave comments.