TrueFire - Play in the Style of Billy Gibbons with Jeff McErlain

Category: Tutorial | Comment: 0

Download Now

TrueFire - Play in the Style of Billy Gibbons with Jeff McErlain
TrueFire - Play in the Style of Billy Gibbons with Jeff McErlain
(.MP4) in an interactive shell | English | PDF tabs + MP3 jam tracks | 864 x 486 | AVC ~768 kbps | 29.970 fps
AAC 138 Kbps 44.1 KHz | 2 channels | 215 minutes | 1.63 GB
Genre: eLearning Video / Guitar lesson


====


Across the entire history of music, there are very few guitar players who we can point to as true innovators of a new style or technique of guitar. Not just truly gifted players, (so many of those!) but players who singlehandedly crafted an entirely new and fresh approach to the instrument, which in turn greatly influenced future generations of players. TrueFire's Play in the Style series focuses on the unique stylings, techniques and creative approaches of these highly influential guitarists.


Billy Gibbons' contribution to the art of Texas boogie and blues rock guitar is undeniable. Any guitarist playing those styles today, including all of today's big name contemporary artists, proudly pay homage to Billy Gibbons' influence in their own music.

Jeff McErlain's Play in the Style of Billy Gibbons is NOT about learning Billy's signature licks or solos note-for-note. The course goes deeper than that by examining the underlying techniques, rhythmic approaches and creative expressiveness of Billy's unique voice on the instrument. Understanding what's under the hood will allow you to draw on his influence in your own sound.

"Jeff is my favourite teacher on the truefire site. He mixes theory and practice seamlessly so learning is so much fun, and completely painless. He is very thorough with his breakdown of the technical aspects of Billy's playing in this course, which allows you to get down and dirty in the style of Billy Gibbons. The course notes also steer you to some of Billy's best recordings (some of which I was unaware of). Pick up so many cool licks with this course!" Malcolm W., TrueFire Student

Jeff organized the course into three sections. The first section examines how to emulate Billy's tone, recommended gear and his go-to scales and fingerings.

In the second section, you'll work through 35 lead and rhythm moves that are characteristic of Billy Gibbons' bends, slides, vibrato, hybrid picking, double-stops, open strings, pinch harmonics, tapping and a variety of rhythm guitar approaches.

Everything comes together in the third section of the course where you'll learn four complete solos designed to incorporate everything covered in the first and second section.

You'll start with a funky groove in the key of C, then a down and dirty blues rocker in the key of G, a Texas boogie in the key of C and then finally, tackle a hard rocking minor blues in G.

Jeff will demonstrate all of the solos for you and then break them down note-for-note. All of the key examples and solos are tabbed and notated, plus you'll get all of the jam tracks to work with on your own. You'll also get Guitar Pro files so that you can loop and/or slow any section as you work through the lessons.

MediaInfo:

General
Complete name : 8.mp4
Format : MPEG-4
Format profile : Base Media
Codec ID : isom (isom/iso2/avc1/mp41)
File size : 23.6 MiB
Duration : 3mn 34s
Overall bit rate mode : Variable
Overall bit rate : 925 Kbps
Writing application : Lavf55.19.104

Video
ID : 1
Format : AVC
Format/Info : Advanced Video Codec
Format profile : [email protected]
Format settings, CABAC : Yes
Format settings, ReFrames : 4 frames
Codec ID : avc1
Codec ID/Info : Advanced Video Coding
Duration : 3mn 34s
Bit rate : 768 Kbps
Width : 864 pixels
Height : 486 pixels
Display aspect ratio : 16:9
Frame rate mode : Constant
Frame rate : 29.970 (30000/1001) fps
Color space : YUV
Chroma subsampling : 4:2:0
Bit depth : 8 bits
Scan type : Progressive
Bits/(Pixel*Frame) : 0.061
Stream size : 19.9 MiB (84%)
Writing library : x264 core 119
Encoding settings : cabac=1 / ref=1 / deblock=1:0:0 / analyse=0x1:0x1 / me=dia / subme=1 / psy=1 / psy_rd=1.00:0.00 / mixed_ref=0 / me_range=16 / chroma_me=1 / trellis=0 / 8x8dct=0 / cqm=0 / deadzone=21,11 / fast_pskip=1 / chroma_qp_offset=0 / threads=4 / sliced_threads=0 / nr=0 / decimate=1 / interlaced=0 / bluray_compat=0 / constrained_intra=0 / bframes=3 / b_pyramid=2 / b_adapt=1 / b_bias=0 / direct=1 / weightb=1 / open_gop=0 / weightp=1 / keyint=250 / keyint_min=25 / scenecut=40 / intra_refresh=0 / rc=abr / mbtree=0 / bitrate=768 / ratetol=1.0 / qcomp=0.60 / qpmin=0 / qpmax=69 / qpstep=4 / ip_ratio=1.40 / pb_ratio=1.30 / aq=1:1.00

Audio
ID : 2
Format : AAC
Format/Info : Advanced Audio Codec
Format profile : LC
Codec ID : 40
Duration : 3mn 34s
Bit rate mode : Variable
Bit rate : 138 Kbps
Maximum bit rate : 192 Kbps
Channel(s) : 2 channels
Channel positions : Front: L R
Sampling rate : 44.1 KHz
Frame rate : 43.066 fps (1024 spf)
Compression mode : Lossy
Stream size : 3.52 MiB (15%)
Default : Yes
Alternate group : 1

Rapidgator.net
Download link
Rapidgator
http://rapidgator.net/file/99e825081362a1fef35d5d993ab73931/d27v9.TrueFire..Play.in.the.Style.of.Billy.Gibbons.with.Jeff.McErlain.part1.rar.html
http://rapidgator.net/file/1c8b11d830afb3a39477a63bc4070ec3/d27v9.TrueFire..Play.in.the.Style.of.Billy.Gibbons.with.Jeff.McErlain.part2.rar.html
http://rapidgator.net/file/b94bc9d5c536f997550736c8feca106c/d27v9.TrueFire..Play.in.the.Style.of.Billy.Gibbons.with.Jeff.McErlain.part3.rar.html
http://rapidgator.net/file/7390216625a24c27b476a07743771e19/d27v9.TrueFire..Play.in.the.Style.of.Billy.Gibbons.with.Jeff.McErlain.part4.rar.html
http://rapidgator.net/file/a00a6c85d1819fb134c1f76d8813335e/d27v9.TrueFire..Play.in.the.Style.of.Billy.Gibbons.with.Jeff.McErlain.part5.rar.html
http://rapidgator.net/file/f367142568bda1a48023587fb7016c4b/d27v9.TrueFire..Play.in.the.Style.of.Billy.Gibbons.with.Jeff.McErlain.part6.rar.html
Uploaded
http://uploaded.net/file/kjewspwi/d27v9.TrueFire..Play.in.the.Style.of.Billy.Gibbons.with.Jeff.McErlain.part1.rar
http://uploaded.net/file/4swjfd7d/d27v9.TrueFire..Play.in.the.Style.of.Billy.Gibbons.with.Jeff.McErlain.part2.rar
http://uploaded.net/file/wljp4hft/d27v9.TrueFire..Play.in.the.Style.of.Billy.Gibbons.with.Jeff.McErlain.part3.rar
http://uploaded.net/file/xf6511gq/d27v9.TrueFire..Play.in.the.Style.of.Billy.Gibbons.with.Jeff.McErlain.part4.rar
http://uploaded.net/file/c5rja489/d27v9.TrueFire..Play.in.the.Style.of.Billy.Gibbons.with.Jeff.McErlain.part5.rar
http://uploaded.net/file/x88awh7x/d27v9.TrueFire..Play.in.the.Style.of.Billy.Gibbons.with.Jeff.McErlain.part6.rar
Nitroflare
http://nitroflare.com/view/90AF69E5E7DB021/d27v9.TrueFire..Play.in.the.Style.of.Billy.Gibbons.with.Jeff.McErlain.part1.rar
http://nitroflare.com/view/16AFF06C0AC7ADB/d27v9.TrueFire..Play.in.the.Style.of.Billy.Gibbons.with.Jeff.McErlain.part2.rar
http://nitroflare.com/view/748D64F5548E26C/d27v9.TrueFire..Play.in.the.Style.of.Billy.Gibbons.with.Jeff.McErlain.part3.rar
http://nitroflare.com/view/CE98957E7A4B872/d27v9.TrueFire..Play.in.the.Style.of.Billy.Gibbons.with.Jeff.McErlain.part4.rar
http://nitroflare.com/view/E1E8BE02BCE808F/d27v9.TrueFire..Play.in.the.Style.of.Billy.Gibbons.with.Jeff.McErlain.part5.rar
http://nitroflare.com/view/E9C3403BFE68A52/d27v9.TrueFire..Play.in.the.Style.of.Billy.Gibbons.with.Jeff.McErlain.part6.rar
Direct Download


Tags: TrueFire, Gibbons, McErlain

TrueFire - Play in the Style of Billy Gibbons with Jeff McErlain Fast Download via Rapidshare Hotfile Fileserve Filesonic Megaupload, TrueFire - Play in the Style of Billy Gibbons with Jeff McErlain Torrents and Emule Download or anything related.
Dear visitor, you went to website as unregistered user.
We encourage you to Register or Login to website under your name.
Information
Members of Guest cannot leave comments.