TTC Video - Fundamentals of Photography [reduced]

Category: Tutorial | Comment: 0

Download Now

http://ultraimg.com/images/Y4xpSdc1465130272680.jpg

TTC Video - Fundamentals of Photography
24xWEBRip | English | M4V | 640 x 478 | AVC ~442 kbps | 29.970 fps
AAC | 162 kbps | 44.1 KHz | 2 channels | 12:36:13 | 3.33 GB
Genre: eLearning / Photographing

Photographs are more than just snapshots. When taken the right way, they become dramatic personal statements with the power to last forever. They can transport you to distant landscapes, capture fleeting emotions, recall cherished memories, reveal the beauty of daily life, and even change the world.

With recent developments in technology, we now take and share photographs almost instantaneously through online photo albums and social media-making this unique form of personal expression more central to our lives than ever before.

But when many of us take photographs, we simply point our cameras and click without being aware of what we're doing, what we're seeing, or how we can do it better. In reality, taking great photographs requires you to see as a professional photographer does; to train your eyes using the same fundamental techniques and principles the experts use to create unforgettable images from the grandest (and simplest) of subjects.

With Fundamentals of Photography, you'll learn everything you need to know about the art and craft of great photography straight from a professional photographer with more than 30 years of experience. Designed for people at all levels, these 24 lectures are an engaging guide to how photographs work and how to make them work better for you. National Geographic contributing photographer Joel Sartore has crafted a course that will hone your photographer's eye so you can capture the greatest moments in nearly every situation and setting imaginable, from a field of flowers to a friend's birthday party to a grand mountain range. Taking you both inside the photographer's studio and out into the field, this course is a chance to learn, in a way anyone can grasp, the basic insights and hidden secrets of photography.

Learn How to See Just as a Professional Does

The first and most important lessons you learn in Fundamentals of Photography involve seeing and thinking just like the professionals who make taking perfect shots seem like second nature.

Mr. Sartore teaches you the three features any photographer needs to have in place before snapping a shot:

Great lighting
Solid visual composition
An interesting perspective on your subject

By paying attention to these aspects (with help from well over 1,000 dramatic photos from Mr. Sartore's award-winning portfolio), you'll be better able to take the kinds of photographs that surpass their original situation and actually mean something to you and others.

Peek inside the Photographer's Toolkit

In the first half of Fundamentals of Photography, you'll become better acquainted with the basic features of cameras and how each plays a role in creating great photographs. Using nontechnical language, Mr. Sartore explains essential tools such as shutter speed, aperture, and lenses.

In the second half of the course, you'll learn to apply the basics of photography to the kinds of photos that people commonly take-and how to take them better than ever.

With Mr. Sartore as your guide, you'll be learning from a master of the craft; a professional photographer whose work has appeared in prestigious publications. So start making your own photos more lasting and meaningful with Fundamentals of Photography.

Lectures:

1 Making Great Pictures
2 Camera Equipment-What You Need
3 Lenses and Focal Length
4 Shutter Speeds
5 Aperture and Depth of Field
6 Light I-Found or Ambient Light
7 Light II-Color and Intensity
8 Light III-Introduced Light
9 Composition I-Seeing Well
10 Composition II-Background and Perspective
11 Composition III-Framing and Layering
12 Let's Go to Work-Landscapes
13 Let's Go to Work-Wildlife
14 Let's Go to Work-People and Relationships
15 Let's Go to Work-From Mundane to Extraordinary
16 Let's Go to Work-Special Occasions
17 Let's Go to Work-Family Vacations
18 Advanced Topics-Research and Preparation
19 Advanced Topics-Macro Photography
20 Advanced Topics-Low Light
21 Advanced Topics-Problem Solving
22 After the Snap-Workflow and Organization
23 Editing-Choosing the Right Image
24 Telling a Story with Pictures-The Photo Essay

MediaInfo:


General
Complete name : Tgc 7901 Lect16 Fundamentalsphotography-16-16.m4v
Format : MPEG-4
Format profile : Base Media / Version 2
Codec ID : mp42
File size : 147 MiB
Duration : 33mn 41s
Overall bit rate mode : Variable
Overall bit rate : 610 Kbps
Movie name : Lect.16 Let's Go to Work-Special Occasions
Album/Performer : The Great Courses
Performer : Prof. Joel Sartore
Composer : The Great Courses
Genre : Books & Spoken
Recorded date : 2012
Encoded date : UTC 2036-02-06 06:28:16
Tagged date : UTC 2036-02-06 06:28:16
Writing application : HandBrake 0.10.2 2015060900

Video
ID : 1
Format : AVC
Format/Info : Advanced Video Codec
Format profile : [email protected]
Format settings, CABAC : Yes
Format settings, ReFrames : 4 frames
Codec ID : avc1
Codec ID/Info : Advanced Video Coding
Duration : 33mn 41s
Bit rate : 442 Kbps
Width : 640 pixels
Height : 478 pixels
Display aspect ratio : 4:3
Frame rate mode : Variable
Frame rate : 29.970 fps
Minimum frame rate : 17.675 fps
Maximum frame rate : 29.970 fps
Color space : YUV
Chroma subsampling : 4:2:0
Bit depth : 8 bits
Scan type : Progressive
Bits/(Pixel*Frame) : 0.048
Stream size : 107 MiB (72%)
Writing library : x264 core 142 r2479 dd79a61
Encoding settings : cabac=1 / ref=1 / deblock=1:0:0 / analyse=0x1:0x111 / me=hex / subme=2 / psy=1 / psy_rd=1.00:0.00 / mixed_ref=0 / me_range=16 / chroma_me=1 / trellis=0 / 8x8dct=0 / cqm=0 / deadzone=21,11 / fast_pskip=1 / chroma_qp_offset=0 / threads=6 / lookahead_threads=2 / sliced_threads=0 / nr=0 / decimate=1 / interlaced=0 / bluray_compat=0 / constrained_intra=0 / bframes=3 / b_pyramid=2 / b_adapt=1 / b_bias=0 / direct=1 / weightb=1 / open_gop=0 / weightp=1 / keyint=300 / keyint_min=30 / scenecut=40 / intra_refresh=0 / rc_lookahead=10 / rc=crf / mbtree=1 / crf=22.0 / qcomp=0.60 / qpmin=0 / qpmax=69 / qpstep=4 / vbv_maxrate=20000 / vbv_bufsize=25000 / crf_max=0.0 / nal_hrd=none / filler=0 / ip_ratio=1.40 / aq=1:1.00
Encoded date : UTC 2036-02-06 06:28:16
Tagged date : UTC 2036-02-06 06:28:16
Color primaries : BT.709-5, BT.1361, IEC 61966-2-4, SMPTE RP177
Transfer characteristics : BT.709-5, BT.1361
Matrix coefficients : BT.709-5, BT.1361, IEC 61966-2-4 709, SMPTE RP177

Audio
ID : 2
Format : AAC
Format/Info : Advanced Audio Codec
Format profile : LC
Codec ID : 40
Duration : 33mn 41s
Bit rate mode : Variable
Bit rate : 162 Kbps
Channel(s) : 2 channels
Channel positions : Front: L R
Sampling rate : 44.1 KHz
Compression mode : Lossy
Delay relative to video : -8s 95ms
Stream size : 39.0 MiB (27%)
Title : Stereo
Encoded date : UTC 2036-02-06 06:28:16
Tagged date : UTC 2036-02-06 06:28:16

ScreenShots

http://ultraimg.com/images/xJNJIF51465130273399.jpg


http://ultraimg.com/images/2JUt4SZ1465130274743.jpg


http://ultraimg.com/images/J5BjhmeI1465130275337.jpg


http://ultraimg.com/images/geGelSk1465130277696.jpg


http://ultraimg.com/images/Es3Hy1465130280368.jpg


http://ultraimg.com/images/Rpu3PlY1465130282977.jpg


http://ultraimg.com/images/nxfJqX1465130284993.jpg


Download link:



Links are Interchangeable - No Password - Single Extraction
Direct Download


Tags: Fundamentals, Photography, reduced

TTC Video - Fundamentals of Photography [reduced] Fast Download via Rapidshare Hotfile Fileserve Filesonic Megaupload, TTC Video - Fundamentals of Photography [reduced] Torrents and Emule Download or anything related.
Dear visitor, you went to website as unregistered user.
We encourage you to Register or Login to website under your name.
Information
Members of Guest cannot leave comments.