Learn Complete Matlab Programming in less than 30 days

Category: Tutorial | Comment: 0

Download Now

http://ultraimg.com/images/htM0LA1465529492479.jpg

Learn Complete Matlab Programming in less than 30 days
WEBRip | MP4 | English | 1280 x 720 | AVC ~330 kbps | 29.970 fps
AAC | 61.9 Kbps | 48.0 KHz | 2 channels | ~7 hours | 1.09 GB
Genre: Video Tutorial / Development, Programming

Matlab Programming is one of the most important technical programming languages and skills today. In this course we will start learning Matlab from beginner level and slowly we ease our way into more technical topics. This course is a general Matlab Programming, and it means that all the majors can benefit from this course. Matlab Programming is an easy and understandable programming language and is an excellent choice for learning before starting other programs like Java, C and C++.
The list of contents is :

Chapter 1: An introduction to Matlab Software
Chapter 2: Mathematics in Matlab
Chapter 3: Working with Variables in Matlab environment
Chapter 4: Trigonometric Functions in Matlab
Chapter 5: Complex Numbers in Matlab
Chapter 6: Working with Vectors in Matlab
Chapter 7: Working with Matrices in Matrices
Chapter 8: Introduction to Calculus and Engineering Functions in Matlab
Chapter 9: Graphs and Descriptionting in Matlab
Chapter 10: Loops, Conditions and intro to Programming in Matlab
Chapter 11: Projects (Updates Weekly with new programming drills)

MediaInfo: GeneralComplete name : 008 Creating New Vectors.mp4Format : MPEG-4Format profile : Base MediaCodec ID : isomFile size : 12.8 MiBDuration : 4mn 31sOverall bit rate mode : VariableOverall bit rate : 395 KbpsEncoded date : UTC 2014-06-17 06:15:22Tagged date : UTC 2014-06-17 06:15:22VideoID : 1Format : AVCFormat/Info : Advanced Video CodecFormat profile : [email protected] settings, CABAC : NoFormat settings, ReFrames : 3 framesCodec ID : avc1Codec ID/Info : Advanced Video CodingDuration : 4mn 31sBit rate : 330 KbpsMaximum bit rate : 6 113 KbpsWidth : 1 280 pixelsHeight : 720 pixelsDisplay aspect ratio : 16:9Frame rate mode : ConstantFrame rate : 29.970 fpsColor space : YUVChroma subsampling : 4:2:0Bit depth : 8 bitsScan type : ProgressiveBits/(Pixel*Frame) : 0.012Stream size : 10.7 MiB (84%)Writing library : Zencoder Video Encoding SystemEncoded date : UTC 2014-06-17 06:14:56Tagged date : UTC 2014-06-17 06:15:22AudioID : 2Format : AACFormat/Info : Advanced Audio CodecFormat profile : LCCodec ID : 40Duration : 4mn 31sBit rate mode : VariableBit rate : 61.9 KbpsMaximum bit rate : 71.6 KbpsChannel(s) : 2 channelsChannel positions : Front: L RSampling rate : 48.0 KHzCompression mode : LossyStream size : 2.00 MiB (16%)Encoded date : UTC 2014-06-17 06:15:22Tagged date : UTC 2014-06-17 06:15:22


Screenshots

http://ultraimg.com/images/uFBFK1465529493961.jpg


http://ultraimg.com/images/st1mkfv1465529495548.jpg


http://ultraimg.com/images/HST4kQJ1465529497108.jpg


http://ultraimg.com/images/1POZKDql1465529498627.jpg




Download link:



Links are Interchangeable - No Password - Single Extraction
Direct Download


Tags: Complete, Matlab, Programming

Learn Complete Matlab Programming in less than 30 days Fast Download via Rapidshare Hotfile Fileserve Filesonic Megaupload, Learn Complete Matlab Programming in less than 30 days Torrents and Emule Download or anything related.
Dear visitor, you went to website as unregistered user.
We encourage you to Register or Login to website under your name.
Information
Members of Guest cannot leave comments.