Peter Hurley The Art Behind The Headshot

Category: Tutorial | Comment: 0

Download Now

Peter Hurley   The Art Behind The Headshot
Peter Hurley - The Art Behind The Headshot
WEBRip | MP4 | English | 1280 x 720 | AVC ~2021 kbps | 23.976 fps
AAC ~192 Kbps | 48.0 KHz | 2 channels | 04:08:42 | 3.86 GB
Genre: eLearning Video / Photographing


===

Peter Hurley: The Art Behind The Headshot is finally available. Peter Hurley, one of the most successful and well known headshot photographers of all time has teamed up with Fstoppers to produce a 4 hour tutorial exposing all of his tips and tricks that he has learned over the past 8 years as a professional photographer. This video touches on all aspects of running a successful photography business but Peter's main goal is to teach the average person about the subtleties of the human face so that you can make any human in front of your camera look interesting.
Peter Hurley spent the early part of his life traveling the world as a professional male model. During that time Peter was photographed by some of the top fashion photographers in the world. As a model Peter was forced to understand the subtle movements of his own face but he was also able to learn the technical side of photography from some of the best in the world. Peter moved to New York city and saw a nitch in the market that he thought he could fill. "I thought that if I could shoot actors headshots like commercial photographers shot celebrities I could be successful." Over the past 8 years Peter has become what many argue is the top headshot photographer in the world.
In this 4 hour tutorial Peter reveals everything that he uses to produce not just technically sound but "interesting" images day in and day out. Although this video does touch on a number of topics, this tutorials main focus is on coaching those in front of your camera into producing the best possible images. We have also decided to bring this "DVD" to you as a digital download so you can enjoy Peter's lessons in 720 HD resolution without having to have a Bluray player! This video is suggested for those who are already professional photographers who want to take their portraits to the next level.
How To Make Anyone Look Their Best
Starting Your Business From Scratch
Natural Light vs Studio Light
The Peter Hurley Signature Look
Shadowed Lighting For Men
Alternative Studio Lighting (Strobes)
Tethering
Camera Gear
Understanding The Human Face (Mouth, Eyes, Eyebrows, and Body Position)
Coaching and Facial Expression
Creating Different "Looks" During Each Session
Marketing
Retouching/Printing
Makeup/Hair
Clothing
Pricing


MediaInfo:

General
Complete name                            : hdpart2.mp4
Format                                   : MPEG-4
Format profile                           : Base Media / Version 2
Codec ID                                 : mp42
File size                                : 1.96 GiB
Duration                                 : 2h 6mn
Overall bit rate mode                    : Variable
Overall bit rate                         : 2 220 Kbps
Encoded date                             : UTC 2011-11-07 17:17:34
Tagged date                              : UTC 2011-11-07 17:17:34
ęTIM                                     : 02:05:23:22
ęTSC                                     : 24000
ęTSZ                                     : 1001
Video
ID                                       : 1
Format                                   : AVC
Format/Info                              : Advanced Video Codec
Format profile                           : [email protected]
Format settings, CABAC                   : Yes
Format settings, ReFrames                : 3 frames
Codec ID                                 : avc1
Codec ID/Info                            : Advanced Video Coding
Duration                                 : 2h 6mn
Bit rate                                 : 2 021 Kbps
Width                                    : 1 280 pixels
Height                                   : 720 pixels
Display aspect ratio                     : 16:9
Frame rate mode                          : Constant
Frame rate                               : 23.976 fps
Standard                                 : NTSC
Color space                              : YUV
Chroma subsampling                       : 4:2:0
Bit depth                                : 8 bits
Scan type                                : Progressive
Bits/(Pixel*Frame)                       : 0.091
Stream size                              : 1.78 GiB (91%)
Language                                 : English
Encoded date                             : UTC 2011-11-07 17:17:34
Tagged date                              : UTC 2011-11-07 17:17:34
Audio
ID                                       : 2
Format                                   : AAC
Format/Info                              : Advanced Audio Codec
Format profile                           : LC
Codec ID                                 : 40
Duration                                 : 2h 6mn
Source duration                          : 2h 6mn
Bit rate mode                            : Variable
Bit rate                                 : 192 Kbps
Maximum bit rate                         : 299 Kbps
Channel(s)                               : 2 channels
Channel positions                        : Front: L R
Sampling rate                            : 48.0 KHz
Compression mode                         : Lossy
Stream size                              : 171 MiB (9%)
Source stream size                       : 171 MiB (9%)
Language                                 : English
Encoded date                             : UTC 2011-11-07 17:17:34
Tagged date                              : UTC 2011-11-07 17:17:34


Screenshots
Peter Hurley   The Art Behind The Headshot
Peter Hurley   The Art Behind The Headshot
Peter Hurley   The Art Behind The Headshot
Peter Hurley   The Art Behind The Headshot
Peter Hurley   The Art Behind The Headshot

Rapidgator

http://rapidgator.net/file/76dd69d5feae5e3ec9d20a32bffc3383/hsjiu.Peter.Hurley..The.Art.Behind.The.Headshot.repost.part1.rar.html
http://rapidgator.net/file/1b5f2ea03470a38ecfc1883892189f20/hsjiu.Peter.Hurley..The.Art.Behind.The.Headshot.repost.part2.rar.html
http://rapidgator.net/file/1bbf3f68b5203555096bb94dbb1e928e/hsjiu.Peter.Hurley..The.Art.Behind.The.Headshot.repost.part3.rar.html
http://rapidgator.net/file/6a5c49662801635ea99b4a144585c4d2/hsjiu.Peter.Hurley..The.Art.Behind.The.Headshot.repost.part4.rar.html
http://rapidgator.net/file/09579e12fb77499594815f3b1de48ac1/hsjiu.Peter.Hurley..The.Art.Behind.The.Headshot.repost.part5.rar.html
http://rapidgator.net/file/08f82f51dd274622b25592027d85a9d4/hsjiu.Peter.Hurley..The.Art.Behind.The.Headshot.repost.part6.rar.html

Nitroflare

http://nitroflare.com/view/C15EB94BA2A1FF6/hsjiu.Peter.Hurley..The.Art.Behind.The.Headshot.repost.part1.rar
http://nitroflare.com/view/9B5825BFB7B7EDF/hsjiu.Peter.Hurley..The.Art.Behind.The.Headshot.repost.part2.rar
http://nitroflare.com/view/B3FA564EDFBC3C3/hsjiu.Peter.Hurley..The.Art.Behind.The.Headshot.repost.part3.rar
http://nitroflare.com/view/D7CB3A2E0515919/hsjiu.Peter.Hurley..The.Art.Behind.The.Headshot.repost.part4.rar
http://nitroflare.com/view/A0C67FFA70AF0B4/hsjiu.Peter.Hurley..The.Art.Behind.The.Headshot.repost.part5.rar
http://nitroflare.com/view/3A6CF40FB3056BC/hsjiu.Peter.Hurley..The.Art.Behind.The.Headshot.repost.part6.rar

uploaded

http://uploaded.net/file/mbeygoko/hsjiu.Peter.Hurley..The.Art.Behind.The.Headshot.repost.part1.rar
http://uploaded.net/file/5jouwig6/hsjiu.Peter.Hurley..The.Art.Behind.The.Headshot.repost.part2.rar
http://uploaded.net/file/rl5b8ptx/hsjiu.Peter.Hurley..The.Art.Behind.The.Headshot.repost.part3.rar
http://uploaded.net/file/8w0o1k9s/hsjiu.Peter.Hurley..The.Art.Behind.The.Headshot.repost.part4.rar
http://uploaded.net/file/hvaccke7/hsjiu.Peter.Hurley..The.Art.Behind.The.Headshot.repost.part5.rar
http://uploaded.net/file/ppx5qbrf/hsjiu.Peter.Hurley..The.Art.Behind.The.Headshot.repost.part6.rar
Direct Download


Tags: Hurley, Headshot

Peter Hurley The Art Behind The Headshot Fast Download via Rapidshare Hotfile Fileserve Filesonic Megaupload, Peter Hurley The Art Behind The Headshot Torrents and Emule Download or anything related.
Dear visitor, you went to website as unregistered user.
We encourage you to Register or Login to website under your name.
Information
Members of Guest cannot leave comments.