[MULTI] ADSR Sounds - Power Mixing in Logic Pro X (2016)

Category: Tutorial | Comment: 0

Download Now


[MULTI] ADSR Sounds - Power Mixing in Logic Pro X (2016)
ADSR Sounds - Power Mixing in Logic Pro X
WEBRip | English | MP4 | 1920 x 1080 | AVC ~4973 kbps | 29.970 fps
AAC | 46.0 Kbps | 44.1 KHz | 1 channel | 01:20:30 | 2.72 GB
Genre: Video Tutial / Sound Processing



Mixing is a fundamental production skill, but it can be daunting to new engineers. In this ADSR Production Concepts course, Instruct Stephen Ellestad walks you through a basic static mix wkflow, discussing the process and choices he makes along the way. This wkflow was developed over several years of teaching audio mix concepts at the college level, and provides a clear, repeatable process f engineers of all levels and genres.
Course Overview
Power Mixing is a basic concept that allows mix engineers to create a balanced, three dimensional static mix. In this course you'll step through the process starting with logical grouping of mix elements and wking through basic balancing, dynamics, equalization, stereo width and depth befe moving onto me specific individual group elements.
If you're looking to get started with pro level mixing, simply want to add new techniques and methods to your arsenal, then this course is a great place to start!
Content:
01 Intro - Power mix overview
02 Starting with mix groups
03 Group dynamics and EQ
04 Panning, ambience & basic part treatment
05 Adjusting reverb & fine tuning
06 Master bus processing & bouncing your proof mix
MediaInfo:  General
Complete name    : 03 Group dynamics and EQ.mp4
Fmat
: MPEG-4
Fmat profile   : Base Media
Codec ID
: isom
File size
: 370 MiB
Duration
: 10mn 17s
Overall bit rate mode                    : Variable
Overall bit rate : 5 028 Kbps
Writing application
: Lavf56.25.101
Video
ID : 1
Fmat
: AVC
Fmat/Info
: Advanced Video Codec
Fmat profile   :
Fmat settings, CABAC                   : No
Fmat settings, ReFrames                : 3 frames
Codec ID
: avc1
Codec ID/Info    : Advanced Video Coding
Duration
: 10mn 17s
Bit rate
: 4 973 Kbps
Width
: 1 920 pixels
Height
: 1 080 pixels
Display aspect ratio                     : 16:9
Frame rate mode  : Variable
Frame rate
: 29.970 fps
Minimum frame rate
: 29.412 fps
Maximum frame rate
: 30.303 fps
Col space
: YUV
Chroma subsampling
: 4:2:0
Bit depth
: 8 bits
Scan type
: Progressive
Bits/(Pixel*Frame)
: 0.080
Stream size
: 366 MiB (99%)
Writing library
: Zencoder Video Encoding System
Audio
ID : 2
Fmat
: AAC
Fmat/Info
: Advanced Audio Codec
Fmat profile   : LC
Codec ID
: 40
Duration
: 10mn 17s
Bit rate mode    : Variable
Bit rate
: 46.0 Kbps
Maximum bit rate : 50.3 Kbps
Channel(s)
: 1 channel
Channel positions: Front: C
Sampling rate    : 44.1 KHz
Compression mode : Lossy
Stream size
: 3.38 MiB (1%)

[MULTI] ADSR Sounds - Power Mixing in Logic Pro X (2016)
[MULTI] ADSR Sounds - Power Mixing in Logic Pro X (2016)
[MULTI] ADSR Sounds - Power Mixing in Logic Pro X (2016)
[MULTI] ADSR Sounds - Power Mixing in Logic Pro X (2016)

I recommends Buy premimum account for High speed+parallel downloads!
Rapidgator

Nitroflare

Direct Download


Tags: Sounds, Mixing

[MULTI] ADSR Sounds - Power Mixing in Logic Pro X (2016) Fast Download via Rapidshare Hotfile Fileserve Filesonic Megaupload, [MULTI] ADSR Sounds - Power Mixing in Logic Pro X (2016) Torrents and Emule Download or anything related.
Dear visitor, you went to website as unregistered user.
We encourage you to Register or Login to website under your name.
Information
Members of Guest cannot leave comments.