Canon 6D DSLR Fast Start with John Greengo

Category: Tutorial | Comment: 0

Download Now

Canon 6D DSLR Fast Start with John Greengo

Canon 6D DSLR Fast Start with John Greengo
WEBRip| MOV + PDF Guide | English | 1248 x 702 | AVC ~437 kbps | 23.976 fps
AAC | 128 Kbps | 48.0 KHz | 2 channels | 04:19:57 | 1.16 GB
Genre: eLearning Video / Photographing

]Take this Canon 6D tutorial with John Greengo, and you'll learn everything you need to know about the camera! In this photography tutorial, he provides hands-on introduction to your CanonĀ® 6D camera's operations, detailed instructions on how all the menus work, and instruction on how to shoot great photos with this specific Canon camera model.
Content:
Product Overview
06:32 HD 2.
Photography Basics
34:01 HD 3.
Button Layout: Top Deck
28:26 4.
Button Layout: Back Side
11:38 HD 5.
Button Layout: Other Sides
11:28 HD 6.
Lenses
32:35 HD 7.
Menu Systems: Shooting and Movies
13:08 HD 8.
Displays
14:40 HD 9.
Menu Systems: Playback
11:34 HD 10.
Menu Systems: Setup
39:43 HD 11.
Wi-Fi Function
18:36 HD 12.
Menu Systems Continued: Setup and Custom Functions
12:32 HD 13.
Camera Operation
02:54 HD 14.
Next Steps
MediaInfo:            GeneralComplete name    :cL-1304-GREENGO-D1S07-Displays-HD.movFormat     : MPEG-4Format profile   : QuickTimeCodec ID   : qt  File size  : 53.2 MiBDuration   : 13mn 8sOverall bit rate mode                    : VariableOverall bit rate : 566 KbpsEncoded date     : UTC 2013-04-19 04:05:32Tagged date: UTC 2013-04-19 04:05:34Writing library  : Apple QuickTimeVideoID : 1Format     : AVCFormat/Info: Advanced Video CodecFormat profile   :  settings, CABAC                   : YesFormat settings, ReFrames                : 4 framesFormat settings, GOP                     : M=2, N=48Codec ID   : avc1Codec ID/Info    : Advanced Video CodingDuration   : 13mn 8sBit rate mode    : VariableBit rate   : 437 KbpsMaximum bit rate : 4 195 KbpsWidth      : 1 248 pixelsOriginal width   : 1 280 pixelsHeight     : 702 pixelsOriginal height  : 720 pixelsDisplay aspect ratio                     : 16:9Frame rate mode  : ConstantFrame rate : 23.976 fpsColor space: YUVChroma subsampling : 4:2:0Bit depth  : 8 bitsScan type  : ProgressiveBits/(Pixel*Frame) : 0.021Stream size: 41.0 MiB (77%)Language   : EnglishEncoded date     : UTC 2013-04-19 03:59:44Tagged date: UTC 2013-04-19 04:05:34Color primaries  : BT.709-5, BT.1361, IEC 61966-2-4, SMPTE RP177Transfer characteristics                 : BT.709-5, BT.1361Matrix coefficients: BT.709-5, BT.1361, IEC 61966-2-4 709, SMPTE RP177AudioID : 2Format     : AACFormat/Info               : Advanced Audio CodecFormat profile   : LCCodec ID   : 40Duration   : 13mn 8sSource duration  : 13mn 8sBit rate mode    : ConstantBit rate   : 128 KbpsChannel(s) : 2 channelsChannel positions: Front: L RSampling rate    : 48.0 KHzCompression mode : LossyStream size: 11.7 MiB (22%)Source stream size : 11.7 MiB (22%)Language   : EnglishEncoded date     : UTC 2013-04-19 03:59:44Tagged date: UTC 2013-04-19 04:05:34MenuID : 3Language   : EnglishEncoded date     : UTC 2013-04-19 03:59:44Tagged date: UTC 2013-04-19 04:05:34

Canon 6D DSLR Fast Start with John Greengo

Canon 6D DSLR Fast Start with John Greengo

Canon 6D DSLR Fast Start with John Greengo

Canon 6D DSLR Fast Start with John Greengo

Canon 6D DSLR Fast Start with John Greengo


DOWNLOAD:

Direct Download


Tags: Greengo

Canon 6D DSLR Fast Start with John Greengo Fast Download via Rapidshare Hotfile Fileserve Filesonic Megaupload, Canon 6D DSLR Fast Start with John Greengo Torrents and Emule Download or anything related.
Dear visitor, you went to website as unregistered user.
We encourage you to Register or Login to website under your name.
Information
Members of Guest cannot leave comments.