[MULTI] Eric Holmlund - ArbiCash + OTO (2016)

Category: Tutorial | Comment: 0

Download Now


[MULTI] Eric Holmlund - ArbiCash + OTO (2016)
Eric Holmlund - ArbiCash + OTO
WEBRip | English | MP4 + PDF Guides + wk files | 1920 x 1080 | AVC ~550 kbps | 5.608 fps
AAC | 64 Kbps | 16.0 KHz | 1 channel | 03:06:05 | 1.81 GB
Genre: eLearning Video / Business, Sales, Marketing




What Is ArbiCash? The primary component that you're getting today is The ArbiCash System ebook written by me. This ebook is brand new, never released befe. It's in PDF fmat, so you can read it on any computer device. You can even print it out if you prefer. Most imptantly, it contains 62 pages packed full of step by step content showing you exactly how to use the ArbiCash System f yourself and start cashing in with Native arbitrage.
What can ArbiCash do?
- The basics of native .
- How to set up a simple website that anyone can create.
- How to drive massive page views from a single visit.
- The best ad placement f maximum earnings.
- Which themes and plugins are needed f an ArbiCash site and where to find them.
- Where to find winning content ideas based on real perfmance data.
- The most effective sources f article and gallery topics.
- How to create the best article titles.
- How to create galleries like you see on so many sites, and where to get the content f them.
- A sample gallery article that you can actually impt into your site and use as a template.
- How to cash in with affiliate articles.
- How to get maximum click through on your ads.
- The settings you need to know to create a profitable campaign.
- The best devices and geographic areas to target.
- How to get your ad campaigns accepted by the reviewers.
- How to get traffic accounts approved.
- How to track your campaign traffic.
- How to create 10 different ad variations in 10 minutes
- How to see exactly where your ads are being shown.
- 3 ways to scale up your arbitrage business
- The biggest risks and how to avoid them.
- 8 ways to optimize profitability.
- How to track your profits and campaign perfmance.
As you can see, this is a very comprehensive course teaching the exact system that I used to scale this business to $28,000 a month of profit in just 4 months.
Price: $997

http://blankrefer.com/?http://arbicash.com/live/

MediaInfo:  General
Complete name    : Upgraded Bonus #2 Finding Royalty Free Images f Free.mp4
Fmat
: MPEG-4
Fmat profile   : Base Media / Version 2
Codec ID
: mp42
File size
: 216 MiB
Duration
: 49mn 1s
Overall bit rate : 615 Kbps
Encoded date     : UTC 2016-07-26 20:54:07
Tagged date
: UTC 2016-07-26 21:17:21
Video
ID : 1
Fmat
: AVC
Fmat/Info
: Advanced Video Codec
Fmat profile   :
Fmat settings, CABAC                   : No
Fmat settings, ReFrames                : 1 frame
Codec ID
: avc1
Codec ID/Info    : Advanced Video Coding
Duration
: 49mn 1s
Bit rate mode    : Variable
Bit rate
: 550 Kbps
Width
: 1 920 pixels
Height
: 1 080 pixels
Display aspect ratio                     : 16:9
Frame rate mode  : Variable
Frame rate
: 5.608 fps
Minimum frame rate
: 4.975 fps
Maximum frame rate
: 29.851 fps
Col space
: YUV
Chroma subsampling
: 4:2:0
Bit depth
: 8 bits
Scan type
: Progressive
Bits/(Pixel*Frame)
: 0.047
Stream size             : 193 MiB (89%)
Title
: Citrix h264 stream handler
Language
: English
Audio
ID : 2
Fmat
: AAC
Fmat/Info
: Advanced Audio Codec
Fmat profile   : LC
Codec ID
: 40
Duration
: 49mn 1s
Bit rate mode    : Constant
Bit rate
: 64.0 Kbps
Channel(s)
: 1 channel
Channel positions: Front: C
Sampling rate    : 16.0 KHz
Compression mode : Lossy
Stream size
: 22.5 MiB (10%)
Title
: AAC stream handler
Language
: English

[MULTI] Eric Holmlund - ArbiCash + OTO (2016)
[MULTI] Eric Holmlund - ArbiCash + OTO (2016)
[MULTI] Eric Holmlund - ArbiCash + OTO (2016)

I recommends Buy premimum account for High speed+parallel downloads!
Rapidgator

Nitroflare

Direct Download


Tags: Holmlund, ArbiCash

[MULTI] Eric Holmlund - ArbiCash + OTO (2016) Fast Download via Rapidshare Hotfile Fileserve Filesonic Megaupload, [MULTI] Eric Holmlund - ArbiCash + OTO (2016) Torrents and Emule Download or anything related.
Dear visitor, you went to website as unregistered user.
We encourage you to Register or Login to website under your name.
Information
Members of Guest cannot leave comments.