[MULTI] Ken Kousen - Advanced Java Development Training Video [WebRip (Mp4)]

Category: Tutorial | Comment: 0

Download Now


[MULTI] Ken Kousen - Advanced Java Development Training Video [WebRip (Mp4)]
Ken Kousen - Advanced Java Development Training Video [WebRip (Mp4)]
English | Size: 2.04 GB (2,191,351,256 bytes)
Categy: Tutial



You're a juni developer with a couple of years of Java under your belt and you've hit the Java wall of mystery. The knowledge blocker where complex concepts like concurrency and netwk programming generics and collections leave you baffled and unable to proceed.
In this video, Java wizard Ken Kousen de-mystifies all to transpt you to a smarter place. A place where your newfound Java skills wk magic into the day-to-day practices of database programming, netwk programming and back-end web development. Spells uncovered include: generic programming, concurrency, interfaces, inheritance, objects, the new I/O packages, wking with relational databases, netwking, testing, inner classes, and the new features of Java 8. Put on your cape and zoom.
- Become masterful at complex Java concepts like concurrency and netwk programming
- Use your new Java skills to program databases, netwk systems, and back-end web applications
- Understand interfaces, inheritance, and objects; generics and collections; and the new I/O packages
- Learn about the Java Persistence API and how to integrate JDBC classes with relational databases
- Practice testing with JUnit and discover how to implement inner classes
- Exple newly released Java 8 features such as lambdas, streams, and the Java.Time package
JavaOne Rock Star award winner Ken Kousen is a Java ment whose taught thousands of developers over the past decade. He runs Kousen IT, a Java technical training and consulting company. He's the auth of the Manning book "Making Java Groovy", the O'Reilly book "Gradle Recipes f Android" ; and the writer/presenter of eight O'Reilly video courses on topics related to Groovy, Android, and Spring. He holds two BS degrees from M.I.T., an MS and a Ph.D. from Princeton, and an MS in Computer Science from R.P.I.
Complete name : 0101 Welcome to the Course.mp4
Fmat
: MPEG-4
Fmat profile : Base Media / Version 2
Codec ID
: mp42 (mp42/mp41)
File size
: 22.9 MiB
Duration
: 5 min
Overall bit rate mode : Variable
Overall bit rate : 625 kb/s
Movie name
: 0101.mp4
Encoded date : UTC 2016-06-22 21:47:57
Tagged date
: UTC 2016-06-22 21:47:58
Comment
: Recded and Tagged by Replay Media Catcher 6 (www.applian.com)
©TIM
: 00;00;00;00
©TSC
: 30000
©TSZ
: 1001
Video
ID : 1
Fmat
: AVC
Fmat/Info
: Advanced Video Codec
Fmat profile : [emailprotected]
Fmat settings, CABAC : Yes
Fmat settings, Reframes : 3 frames
Codec ID
: avc1
Codec ID/Info : Advanced Video Coding
Duration
: 5 min
Bit rate mode : Variable
Bit rate
: 494 kb/s
Maximum bit rate : 1 000 kb/s
Width
: 1 280 pixels
Height
: 720 pixels
Display aspect ratio : 16:9
frame rate mode : Constant
frame rate
: 29.970 (30000/1001) FPS
Standard
: NTSC
Col space
: YUV
Chroma subsampling
: 4:2:0
Bit depth
: 8 bits
Scan type
: Progressive
Bits/(Pixel*frame)
: 0.018
Stream size
: 18.1 MiB (79%)
Language
: English
Encoded date : UTC 2016-06-22 21:47:57
Tagged date
: UTC 2016-06-22 21:47:57
Col range
: Limited
Col primaries : BT.709
Transfer characteristics : BT.709
Matrix coefficients
: BT.709
Audio
ID : 2
Fmat
: AAC
Fmat/Info
: Advanced Audio Codec
Fmat profile : LC
Codec ID
: 40
Duration
: 5 min
Source duration : 5 min
Bit rate mode : Variable
Bit rate
: 125 kb/s
Maximum bit rate : 199 kb/s
Channel(s)
: 2 channels
Channel positions: Front: L R
Sampling rate : 48.0 kHz
frame rate
: 46.875 FPS (1024 spf)
Compression mode : Lossy
Stream size
: 4.59 MiB (20%)
Source stream size
: 4.59 MiB (20%)
Language
: English
Encoded date : UTC 2016-06-22 21:47:57
Tagged date
: UTC 2016-06-22 21:47:57

I recommends Buy premimum account for High speed+parallel downloads!

Rapidgator


Nitroflare

Direct Download


Tags: Kousen, Advanced, Development, Training, WebRip

[MULTI] Ken Kousen - Advanced Java Development Training Video [WebRip (Mp4)] Fast Download via Rapidshare Hotfile Fileserve Filesonic Megaupload, [MULTI] Ken Kousen - Advanced Java Development Training Video [WebRip (Mp4)] Torrents and Emule Download or anything related.
Dear visitor, you went to website as unregistered user.
We encourage you to Register or Login to website under your name.
Information
Members of Guest cannot leave comments.