Justin Cener - T-Shirt Bootcamp (2016)

Category: Tutorial | Comment: 0

Download Now

Justin Cener - T-Shirt Bootcamp (2016)

Justin Cener - T-Shirt Bootcamp
WEBRip | English | MP4 + Project files | 1920 x 1080 | AVC ~488 kbps | 23.976 fps
AAC | 235 Kbps | 48.0 KHz | 2 channels | 08:47:22 | 2.27 GB
Genre: eLearning Video / Business, Sales, Marketing
Justin Cener Mastermind T-Shirt Bootcamp EVERYTHING you need to succeed in the t-shirt business -Coaching Videos: Hours upon hours of in-depth coaching videos walking you through every facet of the t-shirt print on demand business. Modules include Advanced Shopify Tactics, Working With Designers, Beginner Facebook Ads, Advanced Facebook Ads, and way, way more. Each module is filled with numerous, inclusive videos. I'm constantly adding new videos and added 4 just in the last week.


Access To My Designers: Finding a good designer is not only time consuming... it's expensive. All of my bootcamp members get access to my designers. Not only do you get access, but they've agreed to some crazy low prices since I can get them so much work

-Scaling Strategies: I could sell these alone for $50,000. These scaling strategies and rules are included in the bootcamp's members area and can single handedly change your entire business. These rules are the difference between $100 days and $1,000 days.

This is a $497 training program, and a must have for anyone interested in getting into the t-shirt business


General
Complete name : 12. Automated Comment Moderation.mp4
Format : MPEG-4
Format profile : Base Media
Codec ID : isom
File size : 30.8 MiB
Duration : 5mn 45s
Overall bit rate : 748 Kbps
Movie name : 12. Automated Comment Moderation
Performer
Tagged date : UTC 2016-09-13 09:00:51
Writing application : Lavf54.29.104

Video
ID : 1
Format : AVC
Format/Info : Advanced Video Codec
Format profile : [email protected]
Format settings, CABAC : Yes
Format settings, ReFrames : 4 frames
Codec ID : avc1
Codec ID/Info : Advanced Video Coding
Duration : 5mn 45s
Bit rate : 488 Kbps
Width : 1 920 pixels
Height : 1 080 pixels
Display aspect ratio : 16:9
Frame rate mode : Constant
Frame rate : 23.976 fps
Color space : YUV
Chroma subsampling : 4:2:0
Bit depth : 8 bits
Scan type : Progressive
Bits/(Pixel*Frame) : 0.010
Stream size : 20.9 MiB (68%)
Writing library : x264 core 129
Encoding settings : cabac=1 / ref=3 / deblock=1:0:0 / analyse=0x3:0x113 / me=hex / subme=7 / psy=1 / psy_rd=1.00:0.00 / mixed_ref=1 / me_range=16 / chroma_me=1 / trellis=1 / 8x8dct=1 / cqm=0 / deadzone=21,11 / fast_pskip=1 / chroma_qp_offset=-2 / threads=12 / lookahead_threads=2 / sliced_threads=0 / nr=0 / decimate=1 / interlaced=0 / bluray_compat=0 / constrained_intra=0 / bframes=3 / b_pyramid=2 / b_adapt=1 / b_bias=0 / direct=1 / weightb=1 / open_gop=0 / weightp=2 / keyint=250 / keyint_min=23 / scenecut=40 / intra_refresh=0 / rc_lookahead=40 / rc=abr / mbtree=1 / bitrate=488 / ratetol=1.0 / qcomp=0.60 / qpmin=0 / qpmax=69 / qpstep=4 / ip_ratio=1.40 / aq=1:1.00

Audio
ID : 2
Format : AAC
Format/Info : Advanced Audio Codec
Format profile : LC
Codec ID : 40
Duration : 5mn 45s
Bit rate mode : Constant
Bit rate : 235 Kbps
Channel(s) : 2 channels
Channel positions : Front: L R
Sampling rate : 48.0 KHz
Compression mode : Lossy
Delay relative to video : 83ms
Stream size : 9.69 MiB (31%)

Menu
ID : 3
Codec ID : text
Duration : 5mn 45s
Encoded date : UTC 2016-09-13 09:00:51
Tagged date : UTC 2016-09-13 09:00:51

Screenshots

Justin Cener - T-Shirt Bootcamp (2016)

DOWNLOAD
(Buy premium account for maximum speed and resuming ability)

Direct Download


Tags: Justin, Bootcamp

Justin Cener - T-Shirt Bootcamp (2016) Fast Download via Rapidshare Hotfile Fileserve Filesonic Megaupload, Justin Cener - T-Shirt Bootcamp (2016) Torrents and Emule Download or anything related.
Dear visitor, you went to website as unregistered user.
We encourage you to Register or Login to website under your name.
Information
Members of Guest cannot leave comments.