TrueFire - 50 Ultra Intervallic Guitar Licks You Must Know

Category: Tutorial | Comment: 0

Download Now

http://s2.1pic.org/files/2016/10/15/cd8b9392db6702a3b873.jpg

TrueFire - 50 Ultra Intervallic Guitar Licks You Must Know
DATA-DVD | English | MP4 + PDF tabs + MP3 jam tracks | 864 x 486 | AVC ~768 kbps | 29.970 fps
AAC 128 Kbps 44.1 KHz | 2 channels | 144 minutes | 1.33 GB
Genre: eLearning Video / Guitar lesson

A comprehensive collection of intervallic approaches for rock guitar. Nicolas Slonimsky published the Thesaurus of Scales and Melodic Patterns in 1947, which was largely ignored for years until the likes of John Coltrane, Freddie Hubbard, Allan Holdsworth, Frank Zappa, Paul Grabowsky and many other significant artists started crediting the material as a source of great inspiration, which sparked highly creative improvisation.
Rock guitar genius, Jennifer Batten studied with Joe Diorio for many years absorbing both Slonimsky's and Diorio's intervallic teachings, eventually assimilating those ideas into her own intervallic-driven approaches for soloing and improvisation in a modern rock context.

Jennifer's 50 Ultra-Intervallic Licks is a comprehensive collection of Jennifer's intervallic approaches. Work your way through the course and you'll possess an impressive vocabulary of head-turning intervallic licks that you can call on anytime, across the entire fretboard, to spice up your solos and improvisations.

More importantly, you'll graduate the course with a solid know-how for crafting your own intervallic lines, in any harmonic situation. You'll also majorly beef up your right and left hand technique along the way.

Jennifer demonstrates each lick over a rhythm track for optimal musical context, and then breaks it down for you note-by-note. All 50 licks are tabbed and notated, plus you'll get Guitar Pro files as well (ShiChuang & Mac compatible) so you can loop, play and/or slow down the tab and notation. All of the rhythm tracks are also included for you to work with on your own.

Breakaway from those way-too-familiar (and boring) fretboard patterns with 50 powerful doses of Jennifer's Ultra-Intervallic medicine!

Styles

Hard Rock
Rock


Skill Level

Late Intermediate
Advanced
Intermediate


Instrument

Electric Guitar
Guitar


Curriculum

Arpeggios
Soloing
Picking
Legato
Licks


General
Complete name : 2.mp4
Format : MPEG-4
Format profile : Base Media
Codec ID : isom
File size : 16.6 MiB
Duration : 2mn 31s
Overall bit rate mode : Variable
Overall bit rate : 917 Kbps
Writing application : Lavf55.19.104

Video
ID : 1
Format : AVC
Format/Info : Advanced Video Codec
Format profile : [email protected]
Format settings, CABAC : Yes
Format settings, ReFrames : 4 frames
Codec ID : avc1
Codec ID/Info : Advanced Video Coding
Duration : 2mn 31s
Bit rate : 768 Kbps
Width : 864 pixels
Height : 486 pixels
Display aspect ratio : 16:9
Frame rate mode : Constant
Frame rate : 29.970 fps
Color space : YUV
Chroma subsampling : 4:2:0
Bit depth : 8 bits
Scan type : Progressive
Bits/(Pixel*Frame) : 0.061
Stream size : 14.1 MiB (85%)
Writing library : x264 core 119
Encoding settings : cabac=1 / ref=1 / deblock=1:0:0 / analyse=0x1:0x1 / me=dia / subme=1 / psy=1 / psy_rd=1.00:0.00 / mixed_ref=0 / me_range=16 / chroma_me=1 / trellis=0 / 8x8dct=0 / cqm=0 / deadzone=21,11 / fast_pskip=1 / chroma_qp_offset=0 / threads=4 / sliced_threads=0 / nr=0 / decimate=1 / interlaced=0 / bluray_compat=0 / constrained_intra=0 / bframes=3 / b_pyramid=2 / b_adapt=1 / b_bias=0 / direct=1 / weightb=1 / open_gop=0 / weightp=1 / keyint=250 / keyint_min=25 / scenecut=40 / intra_refresh=0 / rc=abr / mbtree=0 / bitrate=768 / ratetol=1.0 / qcomp=0.60 / qpmin=0 / qpmax=69 / qpstep=4 / ip_ratio=1.40 / pb_ratio=1.30 / aq=1:1.00

Audio
ID : 2
Format : AAC
Format/Info : Advanced Audio Codec
Format profile : LC
Codec ID : 40
Duration : 2mn 31s
Bit rate mode : Variable
Bit rate : 128 Kbps
Maximum bit rate : 192 Kbps
Channel(s) : 2 channels
Channel positions : Front: L R
Sampling rate : 44.1 KHz
Compression mode : Lossy
Stream size : 2.32 MiB (14%)

Screenshots

http://s2.1pic.org/files/2016/10/15/fcb8157ffaeb23908942.jpg

Download link:


Links are Interchangeable - No Password - Single Extraction
Direct Download


Tags: TrueFire, Intervallic, Guitar

TrueFire - 50 Ultra Intervallic Guitar Licks You Must Know Fast Download via Rapidshare Hotfile Fileserve Filesonic Megaupload, TrueFire - 50 Ultra Intervallic Guitar Licks You Must Know Torrents and Emule Download or anything related.
Dear visitor, you went to website as unregistered user.
We encourage you to Register or Login to website under your name.
Information
Members of Guest cannot leave comments.