History Channel - Battle Stations: Radar (2001)

Category: TV Show | Comment: 0

Download Now


History Channel - Battle Stations: Radar (2001)
History Channel - Battle Stations: Radar (2001)
DVDRip | 720x544 | .AVI/DivX @ 2042 Kbps | 1h 1mn | Audio: English AC3 192 kbps, 2 channels | Subs: None | 988 MiB
Genre: Documentary | Historical | War

"At the beginning of World War Two, radar was in its infancy. Huge towers were erected along Britain's south coast which tracked German planes as they crossed the English Channel. Without radar and the advanced warning of the German arrival it gave, Britain could well have lost the Battle of Britain. But as the war progressed radar developed at a fantastic rate. When the brilliant scientists at MIT got to work on it they found literally hundreds of uses for radar from aiming gunsights to identifying ships at sea. And the radar systems got smaller and smaller until they could be carried in the fuselage of a ship or in the control room of a submarine."

General
Complete name : HC.Battle.Stations.Radar.avi
Format : AVI
Format/Info : Audio Video Interleave
File size : 988 MiB
Duration : 1h 1mn
Overall bit rate : 2 244 Kbps

Video
ID : 0
Format : MPEG-4 Visual
Format profile : Advanced [email protected]
Format settings, BVOP : 1
Format settings, QPel : No
Format settings, GMC : No warppoints
Format settings, Matrix : Default (MPEG)
Codec ID : DX50
Codec ID/Hint : DivX 5
Duration : 1h 1mn
Bit rate : 2 042 Kbps
Width : 720 pixels
Height : 544 pixels
Display aspect ratio : 4:3
Frame rate : 25.000 fps
Color space : YUV
Chroma subsampling : 4:2:0
Bit depth : 8 bits
Scan type : Progressive
Compression mode : Lossy
Bits/(Pixel*Frame) : 0.209
Stream size : 899 MiB (91%)
Writing library : XviD 1.2.1 (UTC 2008-12-04)

Audio
ID : 1
Format : AC-3
Format/Info : Audio Coding 3
Mode extension : CM (complete main)
Format settings, Endianness : Big
Codec ID : 2000
Duration : 1h 1mn
Source duration : 1h 1mn
Bit rate mode : Constant
Bit rate : 192 Kbps
Channel(s) : 2 channels
Channel positions : Front: L R
Sampling rate : 48.0 KHz
Bit depth : 16 bits
Compression mode : Lossy
Stream size : 84.5 MiB (9%)
Alignment : Aligned on interleaves
Interleave, duration : 40 ms (1.00 video frame)

Screenshots:

History Channel - Battle Stations: Radar (2001)

History Channel - Battle Stations: Radar (2001)

History Channel - Battle Stations: Radar (2001)

History Channel - Battle Stations: Radar (2001)


DOWNLOAD LINKS:
Buy Premium From My Links To Get Resumable Support,Max Speed & Support Me


Links are Interchangeable - No Password - Single Extraction
Direct Download


Tags: History, Channel, Battle, Stations

History Channel - Battle Stations: Radar (2001) Fast Download via Rapidshare Hotfile Fileserve Filesonic Megaupload, History Channel - Battle Stations: Radar (2001) Torrents and Emule Download or anything related.
Dear visitor, you went to website as unregistered user.
We encourage you to Register or Login to website under your name.
Information
Members of Guest cannot leave comments.